&title=Concvssion
&artist=Halv
&first=0.13
&des=ホシノちゃん
&des_5=ホシノちゃん
&lv_5=14
&inote_5=(190)
{1},
{32}1bV75V31[2:15]/5b,2/6,3/7,4h[32:109]/8,,,,,
{4},,,,,,,,,,,,,,,8V64b[2:7],,,,,,,,,,,,,,,,
{32}1bs5[4:28]/8b,2/7,3/6,4/5,,,,,
{4},,,,,,,7,7,7,7,8,8,8,8,3,3,3,3,2,2,2,
{8}2,2,1-5[8:1],,1,,2-4[8:1],,2,,8V63[4:1],,8,,1s5[8:1]*z5[8:1],,
{32}B1,C,B5,,,,,,
{16}2-4[8:1]/6,,2,,2-6[8:1]/8,,,,1V75[8:1]/2,,,4,1,,3,,2-6[8:1],,8,,2-4[8:1],,4V26[4:1],,2-8[8:1],,,,,,,,
{16}7-3[8:1],,,,7-1[8:1],,1-5[8:1],,7,,2,,3h[4:1],,,,7b,,3,4,,6,5,7h[16:3],1-5[8:1],2,3-8[8:1],,1,,,,
{8}6,6,5/7,6,4/8,6,5/7,6/4,3,3,4/2,3,5/1,3,4/2,3/5,
{16}4,5,3,6,2,7,1,8,
{32}2,3,4,5,6,7,8,1,2,3,4,5,6,7,8,1,
{24}2/D8,E8,B7,B6,E6,D6,
{8}E2,B5/B4,E1,B5/B4,Ch[4:1],,
{4},1bx-3b[8:1],1b-6b[8:1]/8x,1b-4b[8:1]/2x,1b-7b[8:1]/8x,1b-5b[8:1]/3x,1bxw5b[8:1],1bx,
{16}2x-4[8:1],,5,5,2x-8[8:1],,7,7,2x,,,6x,,,3x/7x,,8xz4[8:1],,4,4,8x,,,,3x,3x,,4x/7x,4xz8[8:3]/7x,,5xs1b[4:1]/6x,5x/6x,
{4},,8bx-6b[8:1],8b-3b[8:1]/1x,8b-5b[8:1]/7x,8b-2b[8:1]/1x,8bxw4b[8:1]/6x,8bx,
{8}2x-7[8:1]/6x-3[8:1],2x/6x,2x/6x,,1x<6[8:1]/5,,1x/3,,
{16}2x/5x,,,3xV52-8[16:7]/6xV47-1[16:7],,,2x/7x,,,,,,,,,,
{16}2x-5[8:1]/7x-4[8:1],,3x/6x,,2x/7x,,,,2x-8[8:1],,7,7,2x-6[8:1],,5,5<8[8:1],2x,,,5x>2[16:1],,,5x,,1x<6[16:1],,,1x>4[16:1],,,1x,,
{16}5x,,5x,,4x/6x,,4x/6x,,3,7,3,7,2,8,2,8,
{24}D2,E2,B2,B3,E4,D4,
{8}E8,B4/B5,E1,B4/B5,Ch[16:1],,
{16}5bh[4:1]/7-2b[8:1],,,,,,,,1<6[16:3],,,6>3[16:3],,,2,,
{32}B2,B1,B8,B7,B6,B5,B4,B3,Ch[8:1],,,,,,,,8b,1,2,3,4,5,6,7,B5/E5,,B1/E1,,B3/E3,,B7/E7,,
{16}2-7b[8:1],,,,4h[8:1],,,,8>3[16:3],,,3<6[16:3],,,7,,7,8,1,2,5xh[8:1],,Ch[8:1],,4,4,6,6,2,2,4,4,
{4}Ch[4:1],8bx-6b[8:1],8b-3b[8:1]/1x,8b-5b[8:1]/7x,8b-2b[8:1]/1x,8b-4b[8:1]/6x,8bxw4b[8:1],8bx,
{16}8bx-4b[16:1],,,8bx/2x-5[16:1],,,2bx,,7bx-3b[16:1],,,7bx/1xw5[16:1],,,1bx,,
{4},,,,8b<1[2:7],,,,,,,,,,,,,,,,
{8}E7/E6,,,E3/E4,,,,,D8/A7,,,D2/A2,,,D1/E1,,B3,B6,E5/Chf[4:7],,,,,,,,,,,,,,
{8}8b,,,7h[8:5],,,5,,5h[8:3],,,4h[8:3],3,,2h[4:1],,8h[2:3],,,1h[8:9],,,,,,,,,,,,,
{8}2h[8:3],,,4h[8:3],,,5,,5h[8:3],,,7h[8:3],,,2,,3-7[8:1],,,6qq1[8:9],,,,,,,,,,,,,
{4}2b-4-8V24[4:13]/7b-5v8V24[4:13],,,,,,,,7,7,7,7,6,6,5-8[8:1],,
{4}2-4[8:1],1,2-5[8:1],8,2-6[8:1],7,1-4[8:1]*-6[8:1],1,
{4}7-5[8:1],8,7-4[8:1],1,7-3[8:1],2,
{8}8-5[8:1]*-3[8:1],8,8,,
{16}7-5[8:1]/3x,,7,,7-3[8:1]/1,,,,8V24[8:1]/7,,,5,8,,6,,7-1[8:1],,1,,7-5[8:1],,5V73[4:1]*V71[4:1],,7,,,,,,,,
{16}2-6[8:1],,,,2-8[8:1],,8-4[8:1],,2,,7,,6h[4:1],,,,2b,,6,5,,3,4,2h[16:3],8-4[8:1],7,6-1[8:1],,8,,,,
{8}3,4,7/5,6,1/4,2,8/5,7,4/6,6,3/6,6,2/7,2,2/8,2,
{16}8,8,5,5,7,7,2,2,
{32}6,5,4,3,2,1,8,7,6,5,4,3,2,1-5[1.3888888889##0.1444444444444],8,7,6h[4:3]/2h[4:3],,,,,,,,,,,,,,,,,,,,,,,,,,,,,,,,
{16}1b/8b,,6<1[8:1],4,,4,6,,5V31[16:3],,2,2,5,,8,,7-3[8:1],,1,1,7,,8h[8:1],,4V61[16:3],7,,7,4,,2,,
{16}2-5[8:1],,5V38[4:1],5,2,,6,,7-3[8:1],,,,7,,8,1,2-5[8:1],,5>2[8:1],5,2<7[8:1],,7,,6-1[8:1]*-3[8:1],,,,6,,,,
{16}2bv5[8:1],,7,7,2,,8h[8:1],,6p2[8:1],1,,1,6,,7,,6/3>8[8:1],,5,5,3,,5h[8:1],,7q3[8:1],4,,4,7,,6,,
{16}4/5-2[8:1],,7,7,5pp1[8:3],,6,,5/3h[4:1],,,,,,2,3,4-8[8:1],,8,8,4,,6,,
{24}7-3b[8:1],,,2,3,4,
{48}5bh[8:1]/7b,B7,C,B3,,,,,,,,,
{16}8b/1b,,3b>8[8:1],5,A3f,,5,,4V68[16:3],,7,7,4b,,1,,2-6[8:1],,8,8,2b,,1h[8:1],,5V38[16:3],2,,2,5b,,7,,
{16}7-4[8:1],,4V61[4:1],4,7b,,3,,2-6[8:1],,,,2b,,1,8,7-4[8:1],,4<7[8:1],4,7b>2[8:1],,2,,3-8[8:1]*-6[8:1],,,,3b,,,,
{16}7v4[8:1],,2,2,7b,,1h[8:1],,3q7[8:1],8,,8,3b,,2,,3/6<1[8:1],,4,4,6b,,4h[8:1],,2p6[8:1],5,,5,2b,,3,,
{16}5/4-7[8:1],,2,2,4bqq8[8:3],,3,,4/6h[4:1],,,,,,7,6,5bx-1[16:1],,,3bx-8[16:1],,,7bx-4[16:1],,,2bx-5[16:1],,,6b,,7,,
{32}A8f/4bx<8[4:1],D1,A1,D2,A2,D3,A3,D4,A4/1-5b[8:1],,,,,,,,1xV75[16:3],,,,,,,,
{8}4<2[2:1],,3,,4-8[8:1],,4b,,2/6,,
{8}8>2[8:1],2>4[8:1],4<8[4:1],,8b,1h[4:1],,,
{16}2,3,4,5,2,3,4,5,2b/E6,E7,E8,E1,E2,E3,E4,E5,
{32}A1/5bx>1[4:1],D1,A8,D8,A7,D7,A6,D6,A5/8-4b[8:1],,,,,,,,8xV24[16:3],,,,,,,,
{8}5>7[2:1],,6,,5-1[8:1],,5b,,7/3,,
{8}1<7[8:1],7<5[8:1],5>1[4:1],,1b<1[2:1],,,,Chf[4:3],,,,,,,,
{16}2b-7[8:1]/6b-3[8:1],,3b/7b,,2b/6b,,,,1bx-4[16:1],,,1bx-6[16:1],,,1bx,,5b-2[8:1],,5b,,5b/7,,,,8bx-5[16:1],,,8bx-3[16:1],,,8bx,,
{16}4b-7[8:1]*-1[8:1],,4b,,
{48}4b,Cf,B6/B2,,,,,,,,,,
{16}2h[4:1]/8-5[8:1],,,,8b,,1,2,3>8[8:1],,,6,3b,,5h[8:1],,7v2[8:1],4,,4,7b,,6,,
{16}3/5-2[8:1],,,,5bV74[4:1]/6b,,,5x,4xV61[4:1],,3,,2,,2,,2-6[8:1],,,,2b/8b,,,7,5-1[8:1],6,4,,5b/2b,,3,,
{16}8bx-4[16:1],,,2bx-7[16:1],,,6bx-3[16:1],,,1bx-4[16:1],,,5bx-8[16:1],,,2bx,,,
{32}2bx,3,4,,,,1bxh[8:1]/6bx,5,4,,,,8bxh[8:1]/2bx,3,4,,,,2bxh[8:1]/7bx,6,5,,,,8bxw4[8:27]/3bx,4,5,,
{1},,,,
{8}7h[1:1],,,6,,,5,,4h[1:1],,,2,,,1,,8h[2:3],,,1h[8:9],,,,,,,,,,,,,
{24}E3,B3,B4,,,,,,
E
