&title=なかよしセンセーション
&artist=小原好美; 佐倉綾音; 種崎敦美
&first=0.02
&des=moying
&lv_6=13
&inote_6=(154){1},
{16}4,4,,6,6,,4h[8:3]/7h[8:3],,{2},
{16}1,1,,2,2,,3h[8:3]/4h[8:3],,{2},
{16}67,6/7V16[4:1],,,,,5,5-1[8:1],,,,,8,8h[16:3],,,
{16}7,7,,5,5,,23,23,,78,78,,2,6,3,5,
{32}4b,3,2,1,8,7,6,5,4,3,2,1,8,7,6,5,4w8[8:1],3,2,1,8,7,6,5,
{4}4,
{16}2,5,3^8[8:1],4,2,4,,5,,6,6h[8:1],,8b,,35,,
{16}8,2,7,3,6,4,5,3,7b,8,7,,2b,1,2,,
{16}45,,6^3[8:1],5,7,,1,,2,,6,5,,2,1,,
{16}7-3[8:1],,3-7[8:1],,1,,5,,8,,26,26,,4b/8b,{8},
{16}7,3,6,4-1[8:1],5,3,6,4,,7,7,,2b,4,3,,
{16}1/7h[8:1],,5,6,4,5h[8:1],,2,2b-6[8:1],,35,,2b/6b,,8,,
{16}8/7h[16:3],,5,,1/2h[16:3],,4,,18,,6,5,,3,4,,
{1}1b/8b,
{8}3/4-7[8:1],,2,,,34,2,,
5^2[8:1]/6,,6,5^8[8:1],,4,5,,
{8}2-7[8:1]/3-6[8:1],23,,,7-2[8:1]/6-3[8:1],76,,,
{8}8/1-5[8:1],2,1/7-3[8:1],6,{16}37,,4-1[16:1]*-1[16:1],4b,,,,,
{8}7^4[8:1],,8,,,1,8/2h[4:1],,
1^6[8:1],,2,1^4[8:1],,8,1,,
{8}3-7[8:1]/4-7[8:1],25,,,4-8[8:1]/3-8[8:1],25,,,
{8}1/6-1[8:1],5,6/3-8[8:1],4,{16}36,,4,4b,,,,,
{16}47,,6,5,6,,6h[8:3],,5,,4,,3,,5,,
{16}6,,2,4,3,4,3,5,2,,1,,8,,7,,
{16}6,,3,4,3,,25,,4,,6,5,6,,7/4,,
{8}5-7[8:1],4-2[8:1],5-1[8:1],4-8[8:1],5,4,5,1,
{16}2b/6b,,35,,26,,3,5,3,,26,,17,,26,,
{16}4,,37,,6,4,6,,37,,26,,15,,48,,
{16}1b,1h[8:1],,3,3h[8:1],,5,5h[8:1],,7,7h[8:1],,1,8,1,,
{16}8,8h[8:1],,6,6h[8:1],,4,4h[8:1],,2,2h[8:1],,8,1,8,,
{4}1/2b>6[8:1],2b/8h[4:1],{16}7b,,,1b/5b,,,4b/6b,,
{32}7,6,5,4,3,2,1,8,7,6,5,4,3,2,1,8,7,6,5,4,3,2,1,8,
{8}7,2b/6b,
{16}3,5,4,6,5,7^2[8:1],4,6,,3,3,,4b,5,3,,
{16}7,8,6,1,5,2,,8,1b-5[8:1],,5,,1b/6b,,7,,
{16}48,,6,5,6,,4,,3v8[16:1]/7-4[16:1],,,37,,,26,,
{8}1-5[8:1],5-1[8:1],1,7,8,{16}26,26,,4b/8b,,,
{16}2^5[8:1]/6,,3,,8,8,,7h[8:1],,5,6,4,5b,,37,,
{16}2,8,3,7,4,6,1,7,2b-5[8:1],,13,,2b,8,8,,
{8}7-3[8:1],5-1[8:1],7,5,{16}6,,7,8,,3,4,,
{8}1-3[8:1],8-4[8:1],1-5[8:1],8-6[8:1],1,8,1b,,
{16}27,,4,6,3,6,5,6,2,6,5,6,1,6,5,6,
2,2,4,4,3,3,6,6,{8}1b-4[8:1]*-6[8:1],8b,1b,,
{16}37,,5,3,6,3,4,3,7,3,4,3,8,3,4,3,
{16}6,6,,4,4,,12,12,,67,67,,1-5[8:1]/8-4[8:1],1/8,1/8,1/8,{1}1/8,
{8}6/5p1[8:1],,7,,,65,7,,
{8}2,3^8[8:1],4,5h[4:1],,7,86,,
{8}3/4p8[8:1],,2,,,34,2,,
{8}6,7^4[8:1],8,1h[4:1],,3,14,,
{8}5h[1:1],3,3,7,7,2,2,6,6,
7,8,1,2,3,4,5,
{16}7,7h[8:1],,5,5h[8:1],,3,3h[8:1],,1,1h[8:1],,
7,7,8,7h[16:3],,,
{8}1b,2b,3b,4bw8[8:1],3b/5b,4b,,
{8}2^5[8:1]/6,,28,{16}8,8,6,,{8}7,6,{16}3,3,4,,4,5,,5,6,,
{8}7h[8:2],6,5,{16}3,4,3,,2,,8,,6,5,,2,1,,78,,6,,
1h[4:1],,2,,3h[4:1],,4,,5h[8:1],,6,5,7,5,6,,
{8}8h[8:1],7h[8:1],6h[8:1],5h[8:1],4h[8:1],3h[8:1],2h[8:1],1,
{8}1h[8:1],2h[8:1],3h[8:1],4h[8:1],5h[8:1],6h[8:1],7h[8:1],8,
{16}8b,8h[8:1],,6,6h[8:1],,4,4h[8:1],,2,2h[8:1],,8,1,8,,
{16}1b,1h[8:1],,3,3h[8:1],,5,5h[8:1],,7,7h[8:1],,1,8,1,,
{4}8/7b<3[8:1],7b/1h[4:1],{16}2b,,,8b/4b,,,2b/7b,,
{32}1,2,3,4,5,6,7,8,1w5[8:1],2,3,4,5,6,7,8,
{4}1,{8}37,1w5[8:4]/5,{4},,,3b/7b,
{1}2h[8:6]/5h[8:6],4h[8:5]/7h[4:3],
{8}3,3,{16}3,4,3,,{8}6,{16}6,5,6,,{8}6,
{8}78,6,12,3,18,{16}37,37,,1b/5b,,,
{16}7-3[8:1]/3,,6,,1,1,,2h[8:1],,4,3,5,4b,,62,,
{16}7,1,6,2,5,3,6,2,5b-8[8:1],,46,,5b,3,3,,
{8}2-6[8:1],4-8[8:1],2,4,{16}3,,2,1,,6,5,,
{8}8-6[8:1],1-5[8:1],8-4[8:1],1-3[8:1],8,1,8b,,
{16}27,,6,6,4,4,5,5,2,2,4,4,1,1,8,8,
6,6,4,4,2,2,8,8,{8}1b-4[8:1]*-6[8:1],8b,1b,,
{16}37,,2,2,4,4,5,5,7,7,8,8,6,6,2,2,
{16}5b,5,,3b/4b,34,,6b/7b,67,,1b/2b,12,,1b-5[8:1]/8b-4[8:1],1/8,1/8,1/8,
{1}1b>8[2:1]/8b<1[2:1],4b>5[2:1]/5b<4[2:1],
{16}65,65,,32,32,,4h[8:3]/1h[8:3],,{2},
{16}64,64,,76,76,,8h[8:3]/5h[8:3],,{2},
{16}32,3/2V83[8:2],,,,,4,4-8[8:1],,,,,1,1h[16:3],,,
{16}7,7,,56,56,,23,23,,78,78,,2,6,3,5,
{32}4b,3,2,1,8,7,6,5,4,3,2,1,8,7,6,5,4,3,2,1,8,7,6,5,
{4}4,
{32}1b/7b,2b,3b/7b,4b,,,
8b/2b,7b,6b/2b,5b,,,
1b/8b,2b/7b,3b/6b,4b/5b,
{4},,E
