&title=MΔX FLAVØR
&artist=EmoCosine overlay
&first=0.088
&des=ΔSTRΔL VISITØR
&des_5=ΔSTRΔL VISITØR
&lv_5=14+
&inote_5=(261)
{4},,
(250)
{4},,
(215)
{4},,,,
{16}1b/8b,,,D8,,,B2,,,,E6,,,,3h[8:3],,,,5,,5h[8:5],,,,4,,3,,2h[8:1],,,,
{8}1b/8b,,D2,B7,,E4,,6h[8:3],,5,4,3,2h[8:3],1h[4:1],,,
(212)
{8}8b,,4,4h[4:1],,6,,7h[8:1],
{8}5bh[4:1],,7,6,5bh[4:1],1,
{16}2,,2,3,
{8}4b-1[8:1],7,7,6b-3[8:1],2,2,1bV73[4:1],4,5,6b,6b,6b,5bw1b[8:1],,B1/B5/Cf,,
(210)
{16}3-8[8:1],,,,3b/4b,,,,5h[8:1]/6h[8:1],,,5h[8:1]/7h[8:1],,,5/8,,
{16}5-1[8:1],,,,6b/5b,,,,4h[8:1]/2h[8:1],,,4h[8:1]/3h[8:1],,,4/5,,
{16}5-1[8:1],,,,5b/2b,,,,2h[8:1],,,1h[8:1]/3h[8:1],,,4/8,,
{16}7h[8:1],,,8h[8:1]/6h[8:1],,,1/5,,
{24}2h[8:1],,,E5,E6,E7,E8f/C,,,,,,
(207)
{16}2b,,2,,2/4,,2,,3/5,,4,4,4,,3/5,,2b/6b,,6,,3/7,,3,,2/8,,1,1,1,,2/8,,
(205)
{16}3,7,3,7,4,6,4,6,
{48}4bx,,3,,2,,6h[48:3],,,8bx,,1,,2,,7h[48:3],,,1bx,,2,,3,,
{8}4h[8:5]/8>2-4V61[8:3],,,,,,B3/E3f/D3,,
(200)
{8}4/8b,4,4,4,3/7b,3,3,3,4/6b,4,4,4,5b/3,3,3,3,
(195)
{8}4b/6,6,6/3b,6,
{16}2b,7,3,6,1b-6-4[4:1]*-4-6[4:1],8,2,7,,,,,,,,,5<1[8:1]*>1[8:1],,,,A5f,,,,
{16}Ch[8:1],,,,3,5,4,5,2,4,3,4,3,5,4,5,2,4,3,4,1,4,3,4,2,5,2,5,3,6,3,6,
{16}Ch[8:1]/E1f/B8/B1,,,,6,4,5,4,7,5,6,5,8,5,6,5,7,4,7,4,6,3,6,3,
{32}5-1b[8:1],,,,,,,,5bx/A2f,D3,A3,D4,A4,,,,
(190)
{16}Ch[8:1],,,,1b-6b[16:1],,,1b/7b-2b[16:1],,,7b/4b,,4b,,Ch[16:1],,
{16}2b-4b[16:1],,,,2b/5b-1b[16:1],,,5b/8b-6b[16:1],,,8b/2b,,2b,,Ch[16:1],,
{16}7b-5b[16:1],,,,7b/4b-8b[16:1],,,4b/1b-3b[16:1],,,1b/7b,,7b,,Ch[16:1],,
{16}2b>5b[16:1],,,1bx/2x,8x-4b[8:1],7x,6x,,8bx-5[8:1]*-3[8:1],,,,A6/B6/Cf/B2/A2,,,,
(185)
{16}1-7[8:1],,,,1/6-2[8:1],,6,,6/4-1[16:1],,,4-7[16:1],,,4,,
{16}3-1[8:1],,,,3/7-3[8:1],6,5,,7<4[8:1]/2,,,1,7,,B3/E3,,
{16}8-2[8:1],,,,8/3-7[8:1],,3,,3/5-8[16:1],,,5-2[16:1],,,5,,
{12}7,7,7,7/2,7/3,7/4,7-3[8:1]/5-1[8:1],,,Cf,,,
{16}2bx-6[8:1],,,,2/1,,7,7,5-1[8:1],,4,,3>5[4:1]/5,,2,,,,,,4x,,2-4>3-1[8:1],2,1-5[8:1],8,7,6,5b,,,,
{16}7-4[8:1],,4V61[4:1],,7,,1-5[8:1],,2-6[8:1],3,4,,2,,,,1V73[4:1],,4,,1/3,,2,,
{32}1b,8,7,6,5,4,
{16}8b,,,2b/6b,,
(190)
{16}1b-4b[8:1]/Cf,,,,1b-6b[8:1]/8x,,,,1b-5b[8:1]/3x,,,,1b/7x,,,,
{16}7x,4,5,4,8x,5,6,5,7x,4,5,4,8x,,2bx/6bx,,
{16}8b-5b[8:1]/Cf,,,,8b-3b[8:1]/1x,,,,8b-4b[8:1]/6x,,,,8b/2x,,,,
{16}2x,5,4,5,1x,4,3,4,2x-6[8:1],5,4,5,
{32}2x,B2,C,B6,A6,,,,
(195)
{8}Chf[4:7]/7,7,7,7,6,6,6,6,5,5,5,5,4z8[8:1]*s8[8:1],4,,,
{32}2b,3,4,5h[32:3],,,1b,2,3,4h[32:3],,,1,,,,8b,7,6,5h[32:3],,,7b,6,5,4h[32:3],,,2,,,,
(200)
{32}1/Cf,2,3,4,5<2[32:5],6<3[32:5],7>4[32:5],8>5[32:5],,,,,5x>4>3>2<1<8<7<6>5b[16:7]*-3<4-2>3-1>2-8>1-7>8-6<7-5[16:7],,,,
(150)
{4},
(135)
{4},
(125)
{16}1b/Ch[4:1],,2,,3qq8[8:3],,4,4,,5,5,,6,,7,,
{16}8b/Ch[4:1],,7,,6pp1[8:3],,5,5,,4,4h[16:1],,3h[16:1],,2,,
{16}3b/Ch[4:1],,4,,5-3>2v4[8:3],,6,6,,7,7,,8,,7,,
{16}6b/Ch[4:1],,5,,4,,3,3,2-6[8:1]/8z4b[8:1],,1,,2/8,,,,
(130)
{16}1b/7b-5[8:1],,2,,3/7,,4,4,
(135)
{16}8-5[8:1],,3,,2/8,,1,,
(140)
{16}8b-2[8:1]/7b,,6,,5/8,,4,4,
(145)
{16}1-4[8:1],,6,,7/1,,8,,
(150)
{16}1b<8-6[8:1],,4,,3/1,,2,2,
(155)
{16}8-4[8:1],,4,,3/8,,2,,
(160)
{16}1bq5[8:1],,6,,1/7,,8,8,
(165)
{16}2v4[8:1],,1,,2/8,,7,,
(170)
{16}7b,3,7,3,8,7,6,5,
(175)
{16}4b,8,4,8,4,5,6,7,
(180)
{16}1b,8,1,8,1,2,3,4,
(185)
{16}5b,1,5,1,5,4,3,2,
(190)
{16}7b,8,7b,8,6,1,7b,8,
(195)
{16}6b,5,6b,5,8,4,6b,5,
(200)
{16}7b,4,7,4,8b,3,8,3,
(205)
{16}8b,7,6,5,8b/4b,1,2,3,
(210)
{16}4b,8,4b,8,3b,7,3b,7,
(215)
{16}2b,6,2b,6,1b,5,1b,5,
(220)
{16}2b,4,2b,4,3b,5,3b,5,
(230)
{16}4b,6,4b,6,2b,8,2b,8,
(240)
{16}3bx,7bx,3bx,7bx,3bx,7bx,3bx,7bx,
(250)
{16}4bx,8bx,4bx,8bx,4bx,8bx,4bx,8bx,
(261)
{8}1bxw5b[8:1]/5bx,,,,
{32}3bx-8[8:1]/7bx-4[8:1],,,,,,,,E4/E8,Cf,,,,,,,
{8}1-5[8:1],,1<4[4:1]/7,,1/4,,2,1-3[8:1],7,1-5[8:1],5-3[8:1],1,6<1[8:1],,6/2,,
{8}4-6[8:1],,1<6[8:1]/4>1[8:1],,1-5[8:1]/4,,5,7>2[8:1],,3/7,4,5,
{16}1,8,7,6,5b/1b,,2,,
{8}8-4[8:1]/3,,8>5[4:1]/2,,8/5,,7,8-6[8:1],2,8-4[8:1],4-6[8:1],8,3>8[8:1],,3/7,6,
{8}5-3[8:1],,8>3[8:1]/5<8[8:1],,8-4[8:1]/5,,4b,2b-5[8:1]*-6[8:1],,2b,,3b/7b,
{24}2,1,8,7,6,5,4b/8b,,,2bx/6bx,,,
{8}1x-3[8:1],,1b/6b,,1-4[8:1],5,1b,7,2-5[8:1],6,2b,8,3-8[8:1]/7-4[8:1],,3b/7b,,
{8}7-5[8:1],4,7b,2,8-5[8:1],3,8b,1,
{16}1,2,3,4,5b/1b,,,,1-5[8:1]/5,8/4,7/3,6/2,5b/1b,,,,
{8}8x-6[8:1],,8b/3b,,8-5[8:1],4,8b,2,7-4[8:1],3,7b,1,6-1[8:1]/2-5[8:1],,6b/2b,,
{8}4/8,4,3b/7b,7,
{16}2/6,,2,3,4b/8b,,1bx<6[8:1]/5bx>2[8:1],,,,1bx-5[8:1]/5b,,,,1bx,,7xh[8:1],,4,3,2bz6<5<1-5[2:7]/E1f/B1/B8,,,,
{4}Cf,,,,,,,,,,,,,,,,
{4}7h[4:7]/1x,,2x,,3x,,4x,E5,1x/8x,2x/7x,B2/B7,3x/6x,4x-1[8:1]/5x-8[8:1],,
{16}E8/B7/B6/E6/E2/B2/B3/E4/Cf,,,,,,,,
{8}2-6[8:1],2,8-4[8:1],8,1-5[8:1],1,7-3[8:1],7,2-5[8:1],2,6-1[8:1],6,4>8[8:1],,
{16}8,7,6,5,
{8}4-7[8:1],4,1-5[8:1],1,8-6[8:1],8,
{16}4,3,2b>5[8:1],,,,
{24}2/6,7,8,
{8}1-5[8:1],1,3-7[8:1]*-8[8:1],,3b,,
{8}1pp3[8:1],1,5pp7[8:1],5,2-5[8:1],2,6-1[8:1],6,4-8[8:1],4,7<4[8:1],7,1q5[8:1],1,6,
{16}6,7,
{8}8b,8h[8:1],
{24}1,2,3,4h[8:1],,,
{24}6,5,6,5,6,5,6,5,6,4bx>1[8:1]/7bx-4[8:1],,,
{8},4bV68[4:1]/7b,,2x,1xw5[8:1],,Cf,,
{16}3,7,3,7,3,7,3,7,2b,6b,2b,6b,2b,6b,2b,6b,
{24}2bh[8:1],,,7b,6,5,3bh[8:1],,,8b,7,6,
{32}5bh[8:1],,,,1b,2,3,4,7bh[8:1],,,,1b,2,3,4,
{4}5bV31V74[4:3]/Ch[1:1],
