&title=とおせんぼ
&artist=wowaka
&first=0.02
&des=Rotifera
&lv_5=13+
&inote_5=(222){4},,,,{1}1bqq4[4:27]*qq5[4:27],
,,,,,,,{4}8/1,
8/1,{24}6,5,4,3,,,,,,{8}3h[4:1]/1h[4:1],
,,{4}6h[4:1]/8h[4:1],{32},,,,,,,,1,2,3,4,{8}5,
,6-1[8:1],,,3-8[8:1],,,6-2[8:1],
,,{4}1q4[8:3],,,7h[4:1],
5h[4:1],{8}6,6,4,4-1[8:1],
,8,{4}8-5[8:1],{2}2-7[8:1],
{4}6h[4:1],4h[4:1],{8}5,5,3,3-8[8:1],
,7,{4}7qq4[8:3],{2}1h[4:1],
{4}2h[4:1],4h[4:1],{8}3,3,5,5-8[8:1],
,1,{4}1-4[8:1],{2}7-2[8:1],
{4}3h[4:1],5h[4:1],{8}4,4,6,6-1[8:1],
,2,{4}2pp6[8:3],{2}8h[4:1],
{4}7h[4:1],{8}5,5,6,6,4,4>1[8:1],
,8,{4}8<5[8:1],{2}2-7[8:1],
{4}6h[4:1],{8}4,4,5,5,3,3>8[8:1],
,7,{4}7qq4[8:3],{2}1h[4:1],
{4}2h[4:1],{8}4,3h[4:1],,5,{4}4h[4:1],
{8}6,5h[4:1],,7,{4}7-2[8:1],2,
3/4,3/4,5/6,6/5,
{8}8,1,8,1,7,2,7,2,
{4}6b-3[8:1],6,2-5[8:1],{8}2,6h[4:1],
,5,7,4,5,2,4,1,
{4}8-4[8:1],8,2-5[8:1],{8}2,7h[8:3],
,,{4}4>1[8:1],5<8[8:1],4,
2h[4:1],4h[4:1],{8}3,3,5,5h[4:1],
,1,{4}1-5[8:1],8-6[8:1],2-4[8:1],
1,{8}8,8qq1[2:1],,,,4h[8:3],
,,,,1,8,2,7,
{4}3b-6[8:1],3,7-4[8:1],{8}7,3h[4:1],
,4,2,5,4,7,5,8,
{4}1-5[8:1],1,7-4[8:1],{8}7,3h[4:1],
,4,2,5,4,7,5,8,
{4}7h[4:1],5h[4:1],{8}6,6,4,4h[4:1],
,8,{4}8-4[8:1],1-3[8:1],7-5[8:1],
8,{8}1,1>8[8:3],,,,,,,{4}1/8,
4-1[8:1]/5-8[8:1],4/5,
2h[4:1],3h[4:1],{8}4,4-1[8:1],,4/8h[8:3],
,,1,7,2,6,3,5,
{4}2h[4:1],4h[4:1],{8}5,5-8[8:1],,5/1h[8:3],
,,8,2,7,3,6,4,
{4}7/2,4/5,{8}1/8,8/1,,3/4,
,5/6,{4}4/7,{8}1,8,1,8,
{4}2h[4:1],4,7h[4:1],5,
3-8[8:1],6-1[8:1],6,{16}2,8,2,8,
{4}3b-7[8:1],3,8-4[8:1],{8}8,3h[4:1],
,4,2,5,4,7,5,8,
{4}3-8[8:1],3,7-4[8:1],{8}7,2h[8:3],
,,{4}8<5[8:1],1>4[8:1],8,
2-6[8:1],2,5-8[8:1],{8}5,3h[4:1],
,7,{4}7-4[8:1],2-6[8:1],8qq1[2:1],
4h[2:1],,,2/7,
3-8[8:1],4,6-1[8:1],5,
3<6[8:1],3,{8}7,8,1,2h[4:1],
,6,5,4,3,4,5,6,
{4}8/1>8[8:3],{8},,,,5,5-8[8:1],
,,{4}1-6[8:1],8-4[8:1],1,
2-6[8:1],2,5-8[8:1],{8}5,3h[4:1],
,,{4}2/4,5/7,6/3>6[16:7],
5h[2:1],,,1/8,
{8}2,7,3,6,4,4,5,5,
{4}4b/3b-8[8:1],4-7[8:1],1h[4:1],{8}8,8V63[4:1],
,2,{4}2-5[8:1]*-7[8:1],{2}2,
{4}5/4-1[8:1],5-8[8:1],2h[4:1],{8}1,1V74[4:1],
,2,{4}2-5[8:1]*-7[8:1],{2}2,
{4}6/5-2[8:1],6-1[8:1],3h[4:1],{8}2,2V85[4:1],
,4,{4}4-1[8:1]*-7[8:1],4,8,
1>8[8:3],,,1,
1>8[8:3],,,1,
5b/6b-1[8:1],5-2[8:1],8h[4:1],{8}1,1V36[4:1],
,7,{4}7-4[8:1]*-2[8:1],{2}7,
{4}4/5-8[8:1],4-1[8:1],7h[4:1],{8}8,8V25[4:1],
,7,{4}7-4[8:1]*-2[8:1],{2}7,
{4}3/4-7[8:1],3-8[8:1],6h[4:1],{8}7,7V14[4:1],
,5,{4}5-8[8:1]*-2[8:1],5,1,
8<4[4:1],4>8[4:1],8<4[4:1],4>8[4:1],
8<4[4:1],4,8,7/1,
3b-5[8:1],3/6-2[8:1],6/3h[4:1],{8}1,1V73[4:1],
,4,{4}4>1[8:1],4<7[8:1],4,
2-5[8:1],2/6-1[8:1],6/4h[4:1],{8}8,8qq6[16:3],
,4,{4}4>1[8:1],4<7[8:1],4,
1-5[8:1],1/6-3[8:1],6/2h[4:1],{8}4,4V62[4:1],
,1,{4}1>4[8:1],1<6[8:1],1,
4>5[8:3],,,4,
4>5[8:3],,,4,
6b-4[8:1],6/3-7[8:1],3/6h[4:1],{8}8,8V26[4:1],
,5,{4}5<8[8:1],5>2[8:1],5,
7-4[8:1],7/3-8[8:1],3/5h[4:1],{8}1,1pp3[16:3],
,5,{4}5<8[8:1],5>2[8:1],5,
8-4[8:1],8/3-6[8:1],3/7h[4:1],{8}5,5V37[4:1],
,8,{4}8<5[8:1],8>3[8:1],8,
5V71[4:1],1V35[4:1],5V71[4:1],1V35[4:1],
5V71[4:1],1,5,4/6,
3b/7b,{8}8,2,8,1,8,7,
8,6,8,5,8,4,8,8,
4b,7,4,6,4,5,4,3,
4,2,4,1,4,4,8,8,
{1}2h[8:7]/6h[8:7],
{4},1-5[8:1]/7-3[8:1],
E
