&title=SNOWMAN
&artist=TOKYO MACHINE / MAMEYUDOUFU / CHOMPO
&first=0
&des=黑幕组
&des_5=黑幕组
&lv_5=14
&inote_5=(128){4},,,,,,,,{2}5/4V28-6[2:1],
E6/B6,
4/5-7>2-4[2:1],E1/B1/B8,
{4}6/2h[4:1],E4,3/7h[4:1],E6,
5/1h[4:1],3,2/6,{8}2/4,5/7,
6/3,2h[8:1]/8-4[8:1],{24},,7,8,,,{8}6,7h[8:1]/1-5[8:1],{24},,2,1,,,{8}3,
2h[8:1]/8-4[8:1],{24},,7,8,,,{8}6,7h[8:1]/1-5[8:1],{24},,2,1,,,{8}3,
4/6h[4:1],,7,6/4,5/3h[4:1],,2,
3/5,4/6,7/5-1[12:1],8/6,{12}5b/7b,{24}7,8,,,{12}2,{24}2,8,,8,
{4}1/7,{24}3/4,,,,,6,{8}5,7/3,2,{24}2,,8,
{8}3-8[8:1],4,6/3,5,{12}1x,{24}4x,2x,,5x,{8}3x,{16}1,8,
{8}2-6[8:1],1,2/7-4[8:1],8,{12}1,2,{24},3h[6:1],,,,5,,4,
{8}7/2,2/7,{12}5/4,5/4,{24},1b/7b,,,,,,,{8}B3/D3,B7/D7,
{4}B1f/A1,{24}6/5,,,,,3,{8}4,2/6,7,{24}7,,1,
{8}6-1[8:1],5,3/6,4,{12}8x,{24}5x,7x,,4x,{8}6x,{24}8,,1,
{8}7-3[8:1],8,7/2-5[8:1],1,{12}8,7,{24},6h[6:1],,,,4,,5,
{8}1/8,7/2,6/3,5/4,{2}2V41[8:1]/7V58[8:1],
{8}8/1-5[8:1],2/7,{4}6/1-3[8:1],{8}1/4,{24}7h[12:1],,1,,,,{8}8/2,
4/5-7[8:1],6/3,{12}5-1[8:1],3,{24},5/8,,,,,,,{8}2b/7b,5/4,
1/8-4[8:1],7,3-8[8:1],2,7-3[8:1],6,4-7[8:1],5,
1,2,3/6,4/5,8b/1bh[4:1],{48}2,3,4,5,6,7,{4}8,
7/2,{24}6/5,,,,,3,{8}4,2/6,7,{24}7,,1,
{8}6-1[8:1],5,3/6,4,{12}8x,{24}5x,7x,,4x,{8}6x,{24}8,,1,
{8}7-3[8:1],8,7/2-5[8:1],1,{12}8,7,{24},6h[6:1],,,,4,,5,
{8}1/8,7/2,6/3,5/4,{2}2-4v1b[8:1]/7V58[8:1],
{48}1x/8xV27[6:1],7/2,6/3,5/4,,,,,,,,,{4}8x/2x,{12}5V36[6:1],7,,{4}5x/3x,
{8}8V61[6:1],2,{4}4x/8x,{12}2,{24}2,4,,4,{12}5,{24}5,7,,7,
{8}1V72[6:1],7,{4}5x/1x,{8}4V63[6:1],2,{4}4x/6x,
{12}1,{24}1,3,,3,{12}5,{24}5,7>4[4:1],,7,,,,{8}5b,6b,7b,
8/5V37[6:1],7,{4}5/B2,{12}8V26[6:1],2,,{4}8/B4,
{8}5V73[6:1],3,{4}5/B1,{12}8,{24}8,4,,4,{12}2,{24}2,6,,6,
{8}5>2[12:1],7/8,5/6,B4,1<6[12:1],3/4,2/1,B8,
{4}5h[4:1],{48}B3,B4,,,,,{24}7,,5,{12}6,{24}3,4,,2,{32}8/1,2/7,3/6,4/5,,,,,5x/8>3[8:1],
6x,{16}7x,,,{4}3/8,{32}5xpp5[6:1],4x,{16}3x,{32}8x,7x,{16}6x,{4}1h[8:1],
{32}1x/4V25[6:1],2x,{16}3x,,,{4}4/7,{32}7xV16b[6:1],6x,{16}5x,{32}3x,2x,{16}1x,{4}7,
{32}2x/5<1[8:1],3x,{16}4x,,,{4}5/6,{32}6xV41[6:1],7x,{16}8x,{32}3x,4x,{16}5x,{4}7h[8:1],
{8}6h[8:1]/E1/B8/B1,E3,7h[12:1]/B5/E5/B4,{24}E3,,8,{12}1,{24}7,5,,6,{12}2,{24}6,8,{96},,,,,,,,{32}1x/4-8[12:1],
2x,{16}3x,,,{4}7/4,{32}1xqq1[6:1],2x,{16}3x,{32}6x,7x,{16}8x,{4}4h[8:1],
{32}3x/8V24[8:1],2x,{16}1x,,,{4}7/8,{32}8x-4b[32:3],7x,{16}6x,{32}4x,3x,{16}2x,{4}8,
{32}2x/5-1[32:3],3x,{16}4x,,,{4}5/7,{32}2xV85[6:1],3x,{16}4x,{32}7x,8x,{16}1x,{4}4h[8:1],
{128}2qq7[2:1],4v5[2:1],{4},,,{16},,,{64},,,{32}2/6>1[6:1],
3/7,{16}4/8,,,{4}6/8h[32:7],{32}7xV15[6:1],6x,{16}5x,{32}1x,2x,{16}3x,{4}7,
{32}6/2<5[16:3],3/7,{16}4/8,{48},,,,,,{12}2/4,4h[8:1],{96},,,,,,,,{32}3x,2x,{16}1x,{32}5x,6x,{16}7x,{32}E2,B2,{16}B3,{32}E7,B6,{16}B5,
{32}2x>7[6:1],1x,{16}8x,{32}6x,7x,{16}8x,{4}2h[24:5],{32}3xV15[6:1],4x,{16}5x,{32}8x,7x,{16}6x,{4}3,
{8}7h[8:1]/E5/B5/B4,E3,6h[12:1]/B8/E1/B1,{24}E3,,5,{12}4,{24}6,8,,7,{12}3,{24}7,5,{96},,,,,,,,{32}7/3<8[6:1],
6/2,{16}5/1,,,{4}3/1h[32:7],{32}2xV84[6:1],3x,{16}4x,{32}8x,7x,{16}6x,{4}2,
{32}3/7>4[16:3],6/2,{16}5/1,{48},,,,,,{12}7/5,5h[8:1],{96},,,,,,,,{32}6x,7x,{16}8x,{32}4x,3x,{16}2x,{32}B8,C,{16}B4,{32},,,,1/5>8[6:1],
6/2,{16}7/3,,,{4}5/7h[24:5],{32}6xV84[6:1],5x,{16}4x,{32}1x,2x,{16}3x,{4}6,
{8}1>5[4:1]/5<1[4:1],{24},,,,,,,,,,,,4/8,,2,{12}1,{24}1,3,,,{1}6b/5b<4>5[24:83],
{4}E6,E3,{2}C,
{4}E7,E2,{2}C,
{4}E1,E5,{2}C,
{4}2-4[8:1],B5,7-5[8:1],B4,
1-3[8:1],B7,8-6[8:1],B2,
1-3[8:1],B7,8-2[8:1],B4,
3<6[8:1],C,{8}7b<4b[8:1]/8b>3b[8:1],1/6,{4}D8f/A7/A8/B7/B8,
{24}
2b/5b,,,2,,,4,,4,3,,3,7,,,7,,,5,,5,6,,6,
{24}
2b,,,2,,,4,,4,3,,3,7,,,7,,,5,,5,6,,6,
{24}
2b,,,3/4,,,4,,4,3,,3,7,,,7,,,5,,5,6,,6,
{24}
1b,,,1,,,7,,7,3,,3,5w1b[8:1],,4,6,,,5b,,,,,,
{16}
7h[4:1]/3,,4,,5,,6,,8h[4:1]/4,,5,,6,,7,,
{16}
1/5,,1h[8:1]/6,,7,,8,,2h[4:1]/6,,7,,8,,1,,
{16}
8h[8:1]/3,,5,,1h[8:1]/6,,4,,8/2,,5/6,,1/7,,3/4-6-2-8[8:3],,
{16}
1b/8b,,,,7,,7,,7,,7,,{24}7b/2b,,4,5,,,
{48}
4b/5b,3b/6b,2b/7b,1b>2>4<5<7>8>1>2>4<5<7>8>1[4:5]*>2>4<5<7>8>1b[8:5]/8b,,,{16},,,,,,,,,,,,,,
{16}
,,,,,,,,,,,,{32}1-4[8:1],5V71[32:7],1,5,{16}1,,
{16}
1bV74[4:1]/5b,,,,3-7[8:1],,,,3x,,,,8V25[4:1]/5-8[8:1],,,,
{16}
5bV38[4:1]/8b,,,,7-3[8:1],,,,7x,,,,{32}D4,A4,A5,D6,C,,,,
{16}
1b/8b,,,,{24}4/5,,,,,1,{16}1/6,,2/4,,4/5,,5/7,,
{16}
1b/8b,,,,{24}4/5,,4/5,,,1,{16}1/6,,3/8,,{32}6-1[8:1],4V26[32:7],6,4,{16}6,,
{16}
6bV41[4:1]/4b,,,,5-8[8:1],,,,5x,,,,5V73[4:1]/3-8[8:1],,,,
{16}
3bV58[4:1]/5b,,,,4-1[8:1],,,,4x,,,,{32}E6,B5,B4,E4,C,,,,
{16}
1bh[4:1]/8b,,,,{48}8,2/7,3/6,,{24},,,7,{16}7x/5x,,5/6,,3/4,,2/4,,
{16}
1b/8bh[4:1],,,,{48}1,2,3,,8,7,{24}6,,2,{16}2x/4x,,3/4,,5/6,,5/7,,
{16}
1b/8b,,2/7,,{48}1/8,2/7,3/6,,{24},,,7,{16}7x/5x,,5/6,,3h[8:1]/4,,{24}5,6,7,
{16}
8/3,,1/3,,2/3,,3/4,,6/5,,6/7,,6/8,,6/1,,
{16}
6b-1[8:1]/2b-5[8:1],,,,{24}6/2,,,,,8,{16}8x-5[8:1]/4x,,3-8[8:1],,8,,3,,
{16}
7b-4[8:1],,4-8[8:1],,{24}2,,2,,,3,{16}3x<6[8:1],,8h[8:1],,3,,{32}7,8,1,2,
{16}
7b-4[8:1]/3b-8[8:1],,,,{24}7/3,,,,,5,{16}5x-8[8:1]/1x,,2-5[8:1],,5,,2,,
{16}
7,,7h[8:1],,{24}3,,3,,,6,5,,,3,,3,4w8b[12:1],,,1/7,,,
{64}
4b<4[4:7],B4f,C,B1/B8/B7,{16},,,,,,,,,,,,,,,
{16}
,,,,,,,,,,,,,,,,
{16}
7<2[2:1],,7,,7,,7,,7,,7,,7,,7,,
{16}
1>4[4:1],,1,,1,,1,,8<5[4:1],,8,,8,,8,,
{16}
3>6[2:1],,3,,3,,3,,3,,3,,3,,3,,
{16}
5<8[4:1],,5,,5,,5,,4>1[4:1],,4,,4,,4,,
{16}
7-3[2:1],,7,,7,,7,,7,,7,,7,,7,,
{16}
2,,2,,2,,2,,6,,6,,{32}4w8[12:1],3,2,1,8,7,6,5,
{1}
E5f/B4/E4,
E
