&title=The Encounter Code
&artist=technoplanet
&first=0.024
&des=dissipae
&lv_5=14
&inote_5=(212){4}B8,{8},E3/B3,{1},,,{4},,{1}6xh[8:15]/2x<6q3[4:5],
{8},,,,,,,4x,
{1}4xh[1:1],
8xq6[2:1],
{8}5xh[4:3]/3xh[4:1],,,,,2,{4}2,
{8}6h[4:1]/4h[4:3],,,,,7,{4}7,
{2}8/2h[4:1],{16}7x,1x,7x,1x,{4}7h[8:1],
{2}1/7h[4:1],{16}2x,8x,2x,8x,{4}2h[8:1],
3h[4:1],7,{16}6x,4x,6x,4x,{4}7h[2:1],
3,2,{16}3x,5x,3x,5x,{4}2h[4:1],
{8}7x,8x,1x,2x,7x,6x,5x,4x,
{12}3,8,3,8,2,1,2,8,3,7,4,6,
{1}5s1<8z4[1:1],
{16},,,,,,,,,,,,1,8,1,8,
{4}2q3[8:3],{8}6,6,,7-4[8:1],,1h[16:1],
,,,2q5[8:3],,,,,{4}7x-4[8:1],
{8}2,2-8[8:1]*-4[8:1],,2-6[16:3],,2,
,,,7,,,6,6h[8:3],
1-4[8:1],,,8,8h[4:1]/5-2[8:1],,,7,
7-4[16:3],,,3V52[4:1],,6x,{4}6x,
5x>2[8:1],6,4<7[8:1],3,
{8}8,8-5[8:1],1,1h[4:1],,4h[8:3],,,{4}7<4[8:1],
{8}7/2,3-8[8:1],,3/7qq3[8:3],,7,
,2h[16:1],,1h[16:1],,7,6/8,1/5,
{4}2-5[8:1],{8}2,7-1[8:1]*-5[8:1],,7-3[8:1],,7,
,8h[16:1],,1h[16:1]/7h[16:1],,2,3,4,
{4}5/6-1[8:1],{8}1,2-6[8:1],,8,8,8-5[8:1],
,5,4,3-8[8:1],,4,4h[4:1],1,
{2}1-5[8:1],1-6[8:1]*-4[8:1],
7-4[8:1]/2-5[8:1],8w4[8:1],
{1}8bq5<6[2:3]*>1p4>3[2:3],
{4},,,,B7,
{8}B5,2h[16:1],,3h[16:1],,6,
{2}6/4h[4:1],5h[4:1],
7h[4:3],{8}8,,,6/1h[16:1],
,2h[8:5],,1,{32},,,,,,,,,,,,,,,,3h[16:1]/E1,
E8,{16}E7,,,{8}2,2,3/8,{32},,,,,,,,6h[16:1]/E1,E2,{16}E3,
,,{8}7,,8,{4}6/1,{32}4x,3,2,1,8,7,6,5,
{1}Ch[1:3]/4-6-3-7-2-8[2:3],
,1q7[4:3],
{4},,,,6/4,
5/3,7/4,5/2,
{8}6/1,1/6,7/2,7/2,{16}3,6,3,6,4,5,4,5,
{2}3-8[8:1]/6-1[8:1],5-1[8:1]/4-8[8:1],
{16}6bx/3x,,,4b/7,,,{8}5b/2,{2}1b-4[8:1]/8-5b[8:1],
{8}2-5[8:1],1,2,8,8-4[8:1],7-5[8:1],8,7,
,3,5/2,4-8[8:1],3-1[8:1],4,3,6,
{4}6-2[8:1],{8}6,4p6[4:1],,4,,7xh[4:1],
{32},,,,8,1,2,3,{8}4,7/5x,,2/1-5[8:1],8/3,2/1,
{16}4h[2:1],,,6,,,{8}6,{16}7h[2:1],,,8,,,{8}8,
{16}1h[8:3],,,2,,,{8}2,{4}3h[4:1],{8}2,1,
{2}7/8-4[8:1],2/1-5[8:1],
{4}2b-5[8:1],6b,8b-4[8:1],2b-7[8:1],
{8}6xh[8:3],{32},,,,,,,,1,2,{16}3h[16:15],,,,,,,{8}4,
,2,{32},,,,1,8,{16}7h[16:3],,,{8}4,5/3,6/2,
{4}7-4[8:1],{8}8,2-6[8:1],,5-1[8:1],7-4[8:1],5,
{4}7,{8}1,2/6,,3,{16}3,4,3,4,
{4}5/2-5[8:1],{8}8,8,{16},,6,5,6,5,{8}7,
8/4,7-4[8:1],4-8[8:1],7,,2,2,2,
{12}8/3,3h[6:1]/8h[6:1],,,,,6/1,6h[6:1]/1h[6:1],,,,,{4}8b-4[6:1],
3b-8[8:1],6b-2[8:1],2b,
{2}1-5[4:7],{8}B2,A3,,,,,,,{2}E8,
{4}7h[4:1],{8}8,2h[8:3],,,3,4<7[8:1],
,1-5[8:1],,8h[4:1],,2,{4}7-4[8:1]/3-8[8:1],
7/3,{8}2,2/8,7/3,6>3[8:1],6,1-5[8:1],
,1,7,7h[4:1],,4,{4}4h[4:1]/1<6[8:1],
1,5>2[8:1],5,{8}1/8,7-4[8:1],
,,{4}1-5[8:1]*-6[8:1],1,7-3[8:1],
{8}7/8,1>4[8:1],,1/7,{16},,6,5,6,5,{8}7v4[8:1],
,7,{4}1,3/7,{16}2-6[8:1],1,2,1,
{8}2,8<5[8:1],,8/2,{16},,3,4,3,4,{8}2v5[8:1],
,2/8,{4}8-4[8:1],8/3-8[8:1],3,
{16}7h[8:1],,,6h[8:1]/4h[8:1],,,{8}5/3,{16}2h[8:1],,,5h[8:1]/3h[8:1],,,{8}4/6,
{16}7/1,,,6/5,,,{8}2/1,{16}8/3,,,5/4,,,{8}6/1,
{4}7-5-3-1-7[2:1],1,7V53[4:1],5,
2>2[2:1],8,2>6[4:1],4,
1-5[8:1],8/1,8-4[8:1]/7-4[8:1],7/8,
{8}2-5[8:1]*-6[8:1],1,{4}2,{8}8/3,7/4,{16}5,6,5,6,
{4}7/4,7/4,5/2,5/2,
{16}8,7,8,7,1,6,2,5,3,4,2,1,2,1,3,8,
4,7,5,6,4,7,3,7,{32}2x,1,8,7,6,5,4,3,2,1,8,7,6,5,4,3,
{2}2/C,7h[4:1],
{32}B2/B3,E3,,,,,,,{8}B8,B6,,B5/E5/B4,{32},,,,B8/B1,E1,,,,,,,,,,,,,,,{8}E7/B6/B7/Ch[8:5],
{32},,,,,,,,,,,,,,,,E5,
E6,{16}E7,,,,,{8}A2/E3,,A6/E6,,7p2[8:3],
,,,,E7,E8,E1,E2,
{32}B5/B4,E5,,,,,,,,,,,,,,,B7/B8,E8,,,,,,,,,,,,,,,B2/E3,
A2,,,,,,,,,,,3h[32:3]/E6,E7,{16}E8,,,,,,,,,{2}2h[2:1]/C,
6h[4:1],
{32}6h[4:1]/E5,E4,{16}E3,{32},,,,,,,,,,,,3h[4:1]/E5,E6,{16}E7,,,,,,,{4}7<4[8:1],
{8}7/2,3-8[8:1],,3/7qq3[8:3],,7,
,2h[16:1],,1h[16:1],,7,6/8,1/5,
{4}2>5[8:1],{8}2,7-1[8:1]*-5[8:1],,7-3[8:1],,7,
,8h[16:1],{32},,,,7/1,,,7/1,,,,,{8}2,3/8,4/7,
{4}5/6-1[8:1],{8}6/3,3-8[8:1],,3/6,5,4/1,
,2,3,5/7,,6/4,5/3,4/2,
1>4[8:1],8,{4}1/7,{8}8<4[8:1],1,{4}8/2,
{16}1bh[16:1]/3bh[16:1],,,8bh[16:1]/6bh[16:1],,,{8}7b-2[8:1]/3bv6[8:1],{2}7b/3b,
{4}7x-4[8:1],{8}7/8,1-6[8:1],,1/4x-1[8:1]*-7[8:1],,4,
,8-4[8:1],4-6[8:1],8,,2,3/7x,4/8,
{4}8/4-2[8:1],{8}4/1-5-7[4:1],1,,8>3[8:1],,8<5[8:1],
{24},,,8/1x,2x,3x,{8}4,4-2[8:1],,6/4,7,1/8,
{16}2h[16:1],7,,3h[16:1],{8}8,{16}4h[16:1],1,5h[16:1]/6h[16:1],,,7h[16:1]/8h[16:1],,,{8}4h[16:1]/2h[16:1],
{16}3h[16:1],8,,4h[16:1],{8}7,{16}5h[16:1],6x,8h[16:1],7x,,1h[16:1],{8}6,{16}2h[16:1],5,
{2}4xv2b[8:1]*v6b[8:1],4x-1b[8:1]*-7b[8:1],
{4}8b-3b[8:1],8b/6b-1b[8:1],6b/2b,{32}2b,3,4,5,6,7,8,1,
{4}2-5[8:1],{8}2/1,8-3[8:1],,8/5x-2b[8:1]*-8b[8:1],,5,
,1-5b[8:1],5>3b[8:1],1,,7,6/2x,5/1,
{4}8/4-7[8:1],{8}4,8q3[8:3],,8/7x,6,5,
4h[4:1],,,3h[8:3],,,{4}2<5[4:1],
{8}2/Cf,,,4>7[4:1],,7q4[16:3],,5,
,5-1[8:1],6,5/7,,8-4[8:1],2,8,
{4}3-8[8:1],3/6-1[8:1],6/2,{8}2,7,
{16}3b,4b/2b,,,6b,7b/5b,{32},,,,1b/2b,3,4,5,,,,,7b/8b,6,5,4,{96},,,,,,,,,,,,{12}2x,
2,2,1,1,1,8,8,8,7,7,7,
6,6,6,5,5,5,4,4,4,3,3,3,
{4}2-5[8:1],2/6-1[8:1],6/3-8[8:1],3/7-4[8:1],
7/2-6[8:1],2/1-5[8:1],1/8,{16}7,4,7,4,
{4}8-4[8:1],2-5-3-1[2:1],{8}6,6,{4}6h[8:1],
7-3[8:1],2-4V63[2:1],{8}1,1,{4}1h[8:1],
{32}2x,1,8,7,{8}6w2[8:25],{1},,,{4},,,{1}Cf,
E
