&title=REK421
&artist=ariiol
&first=0.05
&lv_5=14
&des_5=小鸟游残光
&inote_5=
(191.37){4},{2},{12}3,5,,5,
3,,{4}3h[4:3],{2},{4}5,
5/3,,{12}6,4,,4,
6,,{4}6h[4:3],{2},{4}4,
6/4,,{12}3,4,,6,
5,,4x,3x,2xh[12:7],{2},{4}6,
6/2,,{12}2,6,,3,
7,,4,8,,4,8,,8,4,,7,
3,,6,2,,{4}5/1,{12}1/5h[2:1],,B1,
B2,B3,,{4}4x,,B7/B6,
B2/B3,C,,{24}B7,B6,{6},{24}B2,
B3,{6},{4}C,,E8/C,
C/E2,B6/C/B3,{8},4,5,4,
5,4,6,3,6,2,7,2,
7,2,8,1,8,1,8,8/1,
7/2,7/2,6/3,6/3,5-1[8:1]/4-8[8:1],5/4,{4}5/4,
E7,C,E3,1-5[8:1],
8/1,{8}6,6,6,6/4,,{16}4,5,
4,5,{8}4,6,3,{4}5h[2:1]/2-6[8:1],2-4[8:1],
2,{8}7-4[8:1],8-3[8:1],7,8,,6,
{16}3,4,{8}3,6/3,6,{4}6/3,1-6[8:1]/2-5[8:1],
1/2,{8}7-3[8:1],2-5[8:1],7,2,,7-2[8:1],
3,7-4[8:1],5,7-2[8:1],3,7p4[4:1],{16},,,{32}E2,C,
{4}E6,{8}2-7[8:1],6-3[8:1],2,6,,1,
6/1,6,{4}6/3,7/2,8-5[8:1]/1-4[8:1],
,{8}7v5[8:1],2v4[8:1],7,2,,6,
8/2,3,7-5[8:1]/1-3[8:1],2/6,{4}7/1,8s4[8:1],
8/2,{8}2-5[8:1],6-8[8:1],2,6,,3,
{6}7/3,{24}6,4,{8}6,6/4,6/2,6/2,{4}7/2-5[8:1],
8,{8}7-4[8:1],7,7/3-8[8:1],3,{4}3/6-2[8:1],
6x,{8}3,4,5,6,{4}7-4[8:1],
7/8,{8}2-5[8:1],5-2[8:1],2-7[8:1],6,6,6,
5,4,3,2,1s5[8:1],7,{4}1,
{6},{12}6h[16:1],5,,6h[16:1],{6}5,{12}6h[16:1],5,,6h[16:1],
{6}5,{12}6h[16:1],5-1[8:1],{6},{4}5/6-8[8:1],6,
{6}3,{12}3,4/3,,3,{6}4/3,{12}3,3/5,,3,
{6}3/6,{12}3,B7/B6,{6},{4}B2/B3,{12}6,,B3,
{6}6,{12}B6,3,,B3,{6}5,{12}B6,4,,4,
{4}5-8[8:1],5/4-1[8:1],4,{12}7,2x,3x,
4x,5x,6,5x,,6,{6}5xp4[4:1],{12}6,5x,{6},{4}7h[4:1],
{12}2,,3,{6}3/7,{12}6,6/2,{24},,,,,,,,,,,,,{8}4,
,4h[8:9],{2},{4}B7,
B6,B5,
{8}B2,B6,E4,E8,{32}B2,B3,{16},{32}B7,B6,{16},,,{8}4,
4,5,5,4,5,3,{4}6h[4:1],
{8}2,3,4,7,6,5,,6,
4,6,3,6/2,{4},{32}1,6,{16},,,,,,,{32}1q4p1[4:7],
6,{16},,,,,,,{32}6,5xh[32:47],{1},{4},,,{16},,,{4}6h[1:1],
,,,E3,
E4,E5,,3h[1:1],
,,,E7,
E6,E5,,3h[4:1],
6h[2:1],{16}B1,B2,B3,B4,{4},B7,
B2,C,,{16}E8,B7,{8},{16}E2,
B2,{8},{16}B6,B5,{8},{16}B3,B4,{8},{16}B7,B6,{8},{16}B2,
B3,{8},{4}Ch[4:1],B6/B3,{12}3,4,,3,
4,,{4}3h[4:3],{2},{8}4,
4,{4}4/3,,{12}6,5,,6,
5,,{4}6h[4:3],{2},{8}5,
5,{4}6/5-1[8:1],6/5,{8}7,6,
5/4,3,2,8/1,7,6,5/4,3,
2,8/1,7,{16}7x/1x,6x/2x,{8}5x/3x,7/1,{16}1,7,1,7,
2,6,2,6,3,5,3,5,4p2[4:3],5,4,5,{4}4b,
E8,E7,{2}E6,
{8}6/4,2,5/3,7,6/5,2,4/3,7,
5/4,3,5/4,6,{4}5/4,{8}5/4,3,
5/4,6,6/4,2,5/3,7,6/3,1,
6/1,{16}8x,7x,6x,5x,{8}1,1,1b/5b,4/3,{16}3,4,
{8}3,{16}6,5,{8}6,6,6/5,6,6/3,{16}4,5,
{8}4,6/3,{16}5,4,{8}5,{4}6/3,{8}6/3,{16}6,4,
{8}6,6/3,{16}3,5,{8}3,6/3,{16}5,4,{8}7,6/3,
{16}4,5,{8}2,7h[8:3],{16}2,3,{2}4,
{8}5,5,4,4,5,5,4,{16}6,5,
{8}6,3,{16}5,4,{8}5,3,3,3,3,
6,{16}3,4,{8}3,6,{16}4,5,{8}4,7,7,
2,2,5,4,6,3,{16}5,4,{8}5,
{16}4,5,{8}4,{16}5,4,{8}6,{16}4,5,{8}3,{16}5,4,{8}5,
{16}3,4,{8}3,{16}6,5,{8}6,{16}4,5,{8}4,{16}6,4,{8}6,
{16}3,5,{8}3,{12}6/5,4x,3x,{8}5/2x,{16}3,4,3,4,{8}3,
{16}5,4,5,4,{8}5,{16}3,4,3-7[8:1],4,{8}3,{4}5/3,
{8}5h[8:1],4,,4h[8:1],5,6h[8:1],5,6h[8:1],
5,6h[8:1],5,{16}5,6,{4}5-1[8:1],5/4,
{8}3h[8:1],4,,3h[8:1],4,4h[8:1],3,3h[8:1],
4,{16}3,4,{8}3,5/3v6[8:1],5/3,3,7,7,
2,2,6,6,{4}3q4[1:1],{16}3x,4x,5x,6x,
7x,8x,1x,2x,3x,4x,{8}5x,5x,5x,{4}5xh[2:1],
,7p4[2:1],,C,
{8},Ch[8:1],,{16}B7,B6,{8}B5,{16}B2,B3,{4}B4,
{8}7,7,2,2,6,6,3,3,
5xz1[8:1],4,5,4,4,4,4,6,
6,3,3,5,5,3,3/6,{16}4,5,
{8}4,6/3,{16}4,5,{8}4,{4}6/3,{8}6,6,
3,3,5,5,4,4,6/4,6/4,
6,6z2[8:1],6,4/6,{4},{8}2-5[8:1],7-4[8:1],
2,7,,2,7,2-6[8:1],,8/2,
,7,{4}7-4[8:1],7/8,{16}3,5,{8}3,
{16}6,4,{8}6,{16}3,5,{8}3,{16}6,4,{8}6,{16}6,4,{8}6,
{16}6,5,{8}6,{16}6,5,{8}6,6/4-8[8:1],3,{4}4/3,
{16}3,4,{8}3,{16}3,5,{8}3,{16}3,6,{8}3,{16}3,7,{8}3,
{4}3/8-5[8:1],8/1-4[8:1],1,{8}C,{16}4,5,
{8}4,{16}5,4,{8}5,{16}4,5,{8}4,{16}5,4,{8}5,{16}4,5,
{8}3,{16}5,4,{8}6,6/3,6/3,6/3,{16}6,4,{8}6,
{16}3,5,{8}3,{16}5,4,{8}5,3/5,{16}4,4,4,4,{8}4,
5/3-7[8:1],5,5/3,5,,8-4[8:1],,8/2,
,{16}3,4,{8}3,{16}3,4,{8}3,{16}3,5,{8}3,{16}3,5,
{8}3,6/3,6/3,6/3,6/3,6/3,{16}6,3,{8}6,
{16}6,3,{8}6,{16}6,4,{8}6,{16}6,4,{8}6,{16}6,5,{8}6,
6/5,6/5,{4}5/6-1[8:1],6/4,{8}3,3,
3,3,6,6,6,6,6/3,6,
6/3,6,6/3,3,6/3,3,6/3,3,
6,4,5,6-3[8:1],3,6,,2-6[8:1],
8,2,,{16}8,2,{4}8-4[8:1],8b/2,
{1},6h[1:2]/3h[1:2],
{4},,,,,6-8[8:1]/3-1[8:1],
6/3,{16}8x,7,6,5,
4,3,2,1,8,7,6,5,4,3,2,1,8,7,6,5,
{8}4-8[8:1],5-1[8:1],4,5,4,5,{16}3,6,3,6,
4,5,4,5,3,6,4,5,3-7[8:1],6,4,5,{8}3,{16}6,5,
4,3,2,1,8/4,7/3,6/2,5/1,{8}8-4[8:1],5x,{4}8b/5xh[2:1],
,{8}4,5,{16}5/2h[8:1],6,{8}7,{16}2/5h[8:1],3,{8}4,
{16}2/8h[8:1],3,{8}4,{16}2/8h[8:1],3,{8}4,8/4>1[8:1],6/2,4/8,{16}8,7,
{8}6,{16}1/8,2/7,{8}3/6h[4:1],{16}5,4,{8}3h[4:1],{16}4,5,{8}6,{16}3,4/5,
6,7,{8}1h[8:1]/8<5[8:1],,{16}8/1,2,{8}3,{16}3x,2,{8}1h[8:1],5,
{16}1/5h[8:1],2,{8}3,{16}2/6h[8:1],3,{8}4,8/4,6/2,{16}6/2h[8:1],5,{8}4,
{16}7/3h[8:1],6,{8}5,{16}8/1h[8:1],7,{8}6,{16}1,2,3/7,6,{8}5-1[8:1],4,
5,{16}2,3,{8}4,{24}8,7,6,{8}5,{16}1-5[8:1],2,{8}3,{16}1/8,7,
{8}6,{16}4,3,2,1,8,7,{4}3/6h[4:1],{16}3,6,3,6,
4,5,4,5,2,6,2,6,3,7,3,7,3,7,3,5,
3,6,3,5,3,6,3,5,3,5,4,5,4,6,3,5,
4,6,3,5,4,6,3,7,2,8,1,7,2,6,3,5,
4,4,4,4,4,4,4,4,4,3x,6,4,5x,3,6,4,
5x,3,6,4,{8}5x,{16}6x/3x,4,,5,3b,6,4,5,3b,6,
4,5,3b,6,{8}4b,6b/3b,,{16}3,6,3,6,4,5,
4,5,3,6,3,6,4,5,4,5,5x,4,5,4,3,6,
4,5,3,6,2,7,1,8,{8}1>4[8:1],{16}7,6,{4}1b/5h[1:2],
,,,,,,,4h[4:5],
{1},{8}5,
{16}4,3,5/2-4[8:1],6,{8}7,(190.857)7x/2,7,7,7,
{16}4,5,{8}4,2,2,{16}5,4,{8}5,2,2,
{16}4,5,{8}4,7,7,7,7,{16}6,4,5,4,
{8},{16}5,4,{8}5,3,3,3,2,2,
(133.04){12}8,8,8,1,8,1,{4}1-5[8:1],1w5[8:1],
1b,{24}5x,6,,6,5,,5,6,,6,7,,7,8,,8,1,,{8}1x/8x,
{24}1,8,,8,7,,7,6,,6-2[8:1],5,,6,5,,{8}6,3,
7b/3b,1,6x/2x,8,{12}8-4[8:1],{24}7,1-5[8:1],,2,{8}8,1,
8b,8/4,2x,6,{12}2>4[8:1],{24}1,6<8[8:1],,5,{8}2-6[8:1],6,
{4}2b,{24}8x,1,,1,2,,2,3,,3,4,,4,5,,5,6,,{8}6-2[8:1],
1x-5[8:1],6,1,{12}7,{24}7,6,,6,{12}5w1[8:1],{24}5,4,,4,
{4}5b,{8}7x/3x,{24}4,5,,5-7>8[8:1],4,,5-3>2[8:1],4,,{8}5-1[8:1],5,
5b,{24}2x,,2,{12}3,{24}3,4,,4,{12}5,{24}5,6,,6,{8}7V53[8:1],8/2,
{4}7b/1,{24}2x,8,,8,2,,{8}7<5[8:1],3>1[8:1],7-3[8:1],3,
7,1,7x/1x-5[8:1],2/8-4[8:1],1>3[8:1],8<6[8:1],1-5[8:1],8,
{32}1b,B1,C,B5,{8}7,{24}3x,4,,8,7,,4,5,,2-4[12:1],1,,6-8[12:1],5,,{8}2,
6x,{24}2,1,,3x,4,,2,1,,3x,4,,2-5[8:1],1,,3-8[8:1],4,,{8}2,
{4}3bx,{24}6x,5,,2,1,,5,4,,8v5[8:1],7,,4v1[8:1],3,,{8}8,
4,7,{24}4x,6,,8,2,,3-1[8:1],8,,7-5[8:1],4,,{8}3-7[8:1],7,
3b,6,{24}2x,4,,4,5,,5,7,,7,5,,5,4,,4,2,,{8}2-4[8:1],
6-8[8:1],2x-6[8:1],6,{32}2b,B2,C,B6,{8},8/1,1s5[8:1]/8z4[8:1],
7/2,8b/1b,
E
