&title=流行アンジェリーナ
&artist=jon-YAKITORY
&first=0
&des=- アンジェリーナ UwU -
&lv_5=13+
&inote_5=(230)
{1},
||
Part
1
{1},,,,
{12}3h[4:1],,,5h[128:1],,,4,,4,6h[128:1],,,
{12}3h[4:1],,,7h[128:1],,,4,,4,8h[128:1],,,
{12}7h[4:1],,,1h[128:1],,,6,,6,3h[128:1],,,
{12}5,,5,4h[128:1],,,7,6,5,1,2,3,
||
Part
2
{12}4/7qq4[2:1],,,3,,,2,,,1,,1,
{12},,7,5,,1/8,,,,6,,6h[12:4],
{12}4-1[8:1],,,,,,4-8[8:1]/5h[4:1],,,,,,
{12}7,,7,5,,5,8<5[8:1],,,1,,,
{12}2pp5[2:1],,,6,,,7,,,8,,8h[4:1],
{12},,6h[4:1],,,5h[4:1],,,2,4,,7,
{12}5pp4[2:1],,,4,,,3,,,2,,,
{12}1>4[8:1],,,7,,,7h[6:1],,5,6p4[2:1],,,
||
Part
3
{12}3,,,3,,,2,,1>6[12:4],,,8h[3:1],
{12},,,,,,7,,8<3[12:4],,,1h[3:1],
{12},,,,,,2,,4,,,1/8,
{12},,7,5,,,1/8,,3q5[12:7],4,,,
{12}6,,,6,,,7,,8<2[12:4],,,1h[3:1],
{12},,,,,,8h[4:1],,,6,,,
{12}5/7,,,4/6,,,3/5,,,2/4,,,
{1}1>8[2:1],
||
Part
4
{2}7<4[2:3],3h[8:1],
{2}3,2h[8:1],
{2}1q5[2:3],6h[8:1],
{2}6h[8:1],7h[8:1],
{2}8<3[2:3],2h[8:1],
{2}2,1h[8:1],
{2}1/8-4[8:1],5-7[8:1]/8-2[8:1],
{4}3,3,4/6,5/7,
{12}8,,8,1,,1,6,,6,3,,3,
{12},,4,5,,5,2,,,1/6,,,
{12}5h[4:1]/8v3[8:1],,,,,,1h[4:1]/8v3[8:1],,,,,,
{4}2h[4:1],4h[4:1],5h[4:1],7h[4:1],
{12}2,,2,3,,3,4,,4,5<8[4:1],,5,
{12},,,2,,2,1,,1,2,,3/8,
{12},,4,5,,5,4h[4:1],,,6,,,
{12}3,4,3,4,,,6,5,6,5,,,
{1}7bqq8[2:1],
{1}3bqq4[2:1],
{12}5/6,,6,3,,,6-2[8:1],,,1h[2:1],,,
{12},,,3,4,5,1q5[8:1]/6h[4:1],,,,,,
{4}7h[4:1],8,2h[4:1],4,
{4}3/5,4/6,5/7,1bp8[2:3]/8b<1[2:3],
{1},,
{12}4h[4:3],,,3,2,1,8,7,6,5,,,
||
Part
5
{12}1b-5[8:1],,,1/7-4[8:1],,,2/7,,,3h[6:1],,5,
{12},,4q8[4:1],5,,2,,,,3,,3,
{12}4-1[8:1],,,3b,,,4-8[8:1]/5,,,2b,,,
{12}7,,7,6,,6,5<8[8:1],,,4/5,,,
{12}3-5[8:1],,,7-3[8:1],,,1,,,1h[12:2],,4V28[4:1],
{12},,8V64[4:1],,,4,,,,2,,,
{12}5<7[8:1],,,4,,,3>1[8:1],,,4,,,
{12}5<7[8:1],,,2,,,1/8,7,6,4/5,3,2,
{12}1/8-4[8:1],,,8/2-5[8:1],,,7/2,,,6h[6:1],,4,
{12},,5p1[4:1],4,,7,,,,6,,6,
{12}5-8[8:1],,,6b,,,5-1[8:1]/4,,,7b,,,
{12}2,,2,8,,8,1>4[8:1],,,1/7,,,
{12}6-4[8:1],,,2-6[8:1],,,8,,,8h[12:2],,5V71[4:1],
{12},,1V35[4:1],,,5,,,,6,,,
{12}4h[4:1],,,6<8[8:1],,,5,,,4h[2:1],,,
{12}1>6[4:1],,,,,,1,,1,8,,,
{12}7q5[3:1],,,3,,,2,,1>6[3:1],,,8h[3:1],
{12},,,,,,7,,8>6[3:1],,,2h[3:1],
{12},,,,,,1/7,,1/7,,,3h[4:1],
{12},,4,2,,,5h[6:1],,4,6-2[8:1],,,
||
Part
6
?
{8}3h[4:3]/6b,,,,1,,4,,
{8},3,4h[2:1],,1,,3,,
{8}4/3h[4:3],,,,2,,4,,
{12},,2,1,,1,2pp1[8:4],,,8,7,6,
{8}5h[4:3],,,,8,,4,,
{8},6,5h[2:1],,8,,6,,
{8}6h[4:3]/5,,,,7,,4,,
{8}3/4,,1/8,,5/6,,1/8,,
{8}2/4,,3/5h[2:1],,7,,3,,
{8},6/4,4h[2:1],,2,,6,,
{8}5/7,,4h[2:1]/6,,2,,6,,
{12},,7,8,,8,7qq8[2:1],,,1,2,3,
{8}4h[2:1],,,,1,,5,,
{8},4/6,6h[2:1],,8,,4,,
(115){16},,5/7h[4:1],,4,,3,,2h[4:1]/4,,5,,6>8[16:3],,,,
||
Part
7
bpm
230
->
115
(115)
{16}3/6,,,4,4h[8:1],,7,,1/8-4[12:1],,5/6,,3q5[4:1]*q5[4:1]/8,,,,
{16}3/6,,,8,8h[8:1],,4,,7V53[8:1]/8V64[8:1],,1,,78,,,,
{16}1-5[12:1]/2,,,8,1,,7h[8:1],,1q5[32:3],,6v4[32:3],,1/7h[16:3],,,,
{16}8h[16:3],,,1,2-5[12:1]/7,,4/5-1[12:1],,2/6V47[16:3],,,,6,,,,
{16}2h[16:3],,,1,3/8v5[12:1],,4/6,,1-4[12:1]*-6[12:1]/8,,2,,1,,,,
{16}7h[16:3]/8,,,5,4/6,,1/8,,3<1[6:1]/6,,4,,3/8h[4:1],,,,
{16}2h[16:3],,,1,3/8,,5/6,,3-8[12:1]/7-4[12:1],,1,,3/7,,,,
{48}1/6h[16:3],2,3,4,,,,,,8,,,1/7,,,,,,4/5,,,,,,
{48}1,2,3,4,,,8,,,,,,8,7,6,5,,,2,3,4,5,,,
||
Part
8
bpm
115
->
230
(230)
{1}8pp5[4:7],,3q5[4:7],,
{12}6h[4:1],,,3h[128:1],,,5,,5,2h[128:1],,,
{12}7h[4:1],,,3h[128:1],,,5,,5,4h[128:1],,,
{12}6h[4:1],,,5h[128:1],,,7,,7,3h[128:1],,,
{12}1>4[4:1],,,5,,,7qq8[2:1],,,3h[4:3],,,
{12},,,,,,1,2,3,4,5,6,
||
Part
9
{12}2b-5[8:1]/7-4[8:1],,,2-8[12:1]/7,,,2/6-2[8:1],,,3/6,,3h[4:1],
{12},,5<2[3:1],4,,5/7,,,,6,,6,
{12}4-1[8:1]*-8[8:1],,,4b,,,4-1[8:1]*-8[8:1],,,4b,,,
{12}7,,7,5,,5,4V68[4:1],,,2/4,,,
{12}2-4[12:1],,,2/7-1[12:1],,,5/7,,,5h[6:1],,8V24[4:1],
{12},,4V68[4:1],,,8,,,,3,,,
{12}2-5[8:1],,,8,,,6-1[8:1],,,4,,,
{12}3<6[8:1],,,7h[4:1],,,{24}8,1,2,3,4,5,6,7,8,1,2,3,
{12}8b<5[8:1]/4>1[8:1],,,4/8-4[8:1],,,2-5[8:1]/8,,,2/6,,6h[4:1],
{12},,4>6[3:1],5,,2/4,,,,3,,3,
{12}5-8[8:1]*-1[8:1],,,5b,,,5-8[8:1]*-1[8:1],,,5b,,,
{12}2,,2,4,,4,5V31[4:1],,,7/5,,,
{12}7-5[12:1],,,7/2-8[12:1],,,2/4,,,4h[6:1],,1V75[4:1],
{12},,5V31[4:1],,,1,,,,6,,,
{4}7-2[8:1],3-6[8:1],8-5[8:1],4-1[8:1],
{12}7h[4:1],,,,,,2/6,,,4qq1[4:6]/5pp8[4:6],,,
{12}4b/5b,,,,,,,,,,,,
{12},,,,,,,,,,,,
{12}5w1[8:1],,,5b,,,5w1[8:1],,,5b,,,
{12}7,,7,3,,3,8qq6[4:1]*q5[4:1],,,8,,,
||
Part
10
{12},,,4/7,,,2,,2,6,,8<4[4:1],
{12},,4>8[4:1],,,8,,,,6,,,
{12}7-5[8:1]/4h[4:1],,,,,,1-3[8:1]/4h[4:1],,,,,,
{12}5,,5,3,,3,7,,7,1h[4:1],,,
{12}8<5[8:1],,,3,,,1>4[8:1],,,6,,6<2[4:1],
{12},,2>6[4:1],,,6,,,,3,,,
{12}4w8[8:1],,,4b,,,4w8[8:1],,,4b,,,
{12}2,,2,4,,4,5>2[8:1],,,5/8,,,
{12}1-6[8:1]/7h[4:1],,,,,,5-2[8:1]/8h[4:1],,,,,,
{12}7-4[8:1]/1h[4:1],,,,,,3-8[8:1]/2h[4:1],,,,,,
{12}3,,7,,,1/8,,,6,5,,2/4,
{12},,7/8,,,2,4,,,1h[2:1]/8h[2:1],,,
{32},,,,,,,,,,,,,,,,1b/8b,2b/7b,3b/6b,4b/5b,,,,,,,,,,,,,
