&title=Cutter
&artist=EmoCosine
&first=0
&des=Polo
&lv_5=14
&inote_5=(160){4},,,,1b,{32}B1,B2,,,,,,,,,,,,,,,B7,B8,,,,,,,,,,,,,,,B5,B6,,,,,,,,,,,,,,,B3,B4,,,,,,,Chf[2:3],,,,,,,,
B1,B2,,,,,,,,,,,,,,,B7,B8,,,,,,,,,,,,,,,B5,B6,,,,,,,,,,,,,,,,,,,,,,,
{8}6/2,{4}4>8[4:1],8<4[4:1],4>8[4:1],8V64[4:1],4V28[4:1],8V64[4:1],4,{8},
7,{4}5<1[4:1],1>5[4:1],5<1[4:1],1V35[4:1],5V71[4:1],1V35[4:1],5,{8},
7,{4}2-7[4:1],7-4[4:1],4-1[4:1],1-6[4:1],6-3[4:1],3-8[4:1],8,{8},
2b/6b,,4,7b/1b,,2b/6b,,3b/5b,{32}1x,2x,,,7,,1,,7x,6x,,,1,,7,,8x-4[8:1],1x,,,8x,7x,,,8b,,,,,,,,{8}
6h[4:1]/3,,{16}1x,,5,4,6,3,5h[8:1],,1x,,3,4,3h[4:1],,,,8x,,6,4,5,3h[16:3],4,,8x,,5,4,
3h[4:1]/6,,,,{16}8x,,4,5,3,6,4h[8:1],,8x,,6,5,6h[4:1],,,,1x,,3,5,4,6h[16:3],5,,1x,,4,5,3/6,,2,,6/1,,5,,7/1,,2,6,3h[8:1],,5,,
7/2,,6,,3/8,,4,,2/8,,7,3,6h[8:1],,4,,{16}
6,5,7,3,4,2,6,4,8,3,5,1,{32}6,7,8,1,2,3,4,5,6h[4:1]/2,,,,,,,,{8}C,,7-3[8:1]/8-4[8:1],1/6,7/8,,2b/6b,,{16}5x,,5x,3x,,3x,,3x,5x,,5x,3x,5x-7[8:1]*-8[8:1],,,,5-3[8:1]*-2[8:1],,,,5w1[8:1]*w1[8:1],,,,5,,,,7/3,,,,{16}4,,4,6,,6,,6,4,,4,6,7/3,,6,,4,,2/6,,3,,5,,3-8[8:1]/6-1[8:1],,4/5,,3/6,,,,7,,1,7,,1,,7,1,,7,1,7,,1,7,1,,7,1,7/1,,,2/6,,,3/5,,2/6,,,,7b/3b,,7b/3b,4b/6b,,4b/6b,,5b/3b,3b/5b,,2b/6b,,1,,6pp4[8:3],,3qq5b[8:2],,,,,,,,E5f,,,,
2/7,,6,5,6,,7/4,,3,4,3,,6q3[4:1]/3,,4/5,,6/3>7[3:1],,3,,4,,4,,3,,3,,2,,1,,
2,,3,5,4,,8,,6,4,5,,7/2,,3/6,,7>2[8:1],,3p6[8:1],,7,,3,,2x<7[8:1],,6xq3[8:1],,2x,,6x,,{8}
6x-8[8:1],5x-1[8:1],6x-2[8:1],5x-3[8:1],6x-8[8:1],5x-1[12:1],6x,5x,3x-8[8:1]/6x-1[8:1],,3/6,,3-8[8:1]/6-1[8:1],,3/6,,{12}
8,8,8,6,6,6,4,4,4,2-6b[16:1],2,2,2b<2[2:1]*>2b[2:1],,,,,,,,,,,,{4}
8bz4[2:1]/2bqq6[2:1],,,,8bV25[2:1]/6bpp2[2:1],,,,6bz2[2:1]/4bs8[2:1],,,,8bz4[2:1]/3bs7[2:1],,,,{16}
3/6,,7,5,6,,2,4,3,,8,6,7,,1,3,2,,7,5,6,,2,4,3,,8,6,7,,1,3,2,1,2,8,2,7,2,6,2,5,2,4,{32}2,3,4,5,2,1,8,7,2bqq7[3:1]*pp5[3:1],,,,,,,,,,,,,,,,,,,,,,,,2b/7b,,,,,,,,{48}1b/8b,2/7,3/6,4/5,,,{16}6,5,7,,3,4,2,,8,1,{48}8b,7,6,5,,,{16}1,8,{48}1b,2,3,4,,,{16}8,5,7,,1,5,2,,7,8,{48}7b,6,5,4,,,{16}2,1,{48}2b,3,4,5,,,{16}7,8,6,,2,1,3,,7,8,{48}7b,6,5,4,,,8b,7,6,5,,,8b,7,6,5,,,1,,,1,,,6h[8:1],,,,,,{8}2,1w5[8:1],2/8,1,,{16}2b/7b,,3,5,2v5[8:1],,6v1[8:1],,2V46[6:1],,6,,2b,,,,{16}7b/2b,,7,1,6v1[8:1],,2v5[8:1],,6V82[6:1],,2,,6b,,,,{16}5b/3b,,6,1,7v4[8:1],,3v8[8:1],,7V53[6:1],,3,,7b,,,,{24}1,2,3,7,6,5,2,3,4,8,7,6,{32}1,2,3,4,5,6,7,8,1q5[8:1]/5q1[8:1],,,,,,,,{4}1<5[8:1]/5>1[8:1]/Cf,1x-4[8:1]/5x-8[8:1],1xqq6[4:3]/5x,5-3[8:1],5-2[8:1],5-1[8:1],5,6V42[4:1]/2v5[8:1],2V86[4:1]/6,5x-8[8:1],5pp1[4:3],2>5[8:1],2v5[8:1],2>5[8:1],2,3p7[8:1]/7p3[8:1],7>3[8:1]/3<6[8:1],{32}7-4[8:1]/3xqq7[8:9],A4,A5,A6,,,,,7xb,,,,,,,,6,5,4,,,,,,6,5,4,,,,,,6-4[8:1],,,,,,,,6,,,,,,,,{32}1h[24:5]/8h[24:5],,,,,,,,{24}
2,3,4,8,7,6,1,2,3,8,7,6,1,2,3,7,6,5,2,3,4,8,7,6,2,3,4,1,2,3,7,6,5,8,7,6,{32}3,4,5,6,7,8,1,2,3/6,,,,,,,,{8}B1/B2/E2/6,,B1/B2/E2/6,,B1/B2/E2/6,{16},6,B1/B2/E2,,6,,B1/B2/E2/6,,,,B1/B2/E2/6,,,,B1/B2/E2/6,,,6,B1/B2/E2,,6,,B1/B2/E2/6,,,,B1/B2/E2/6,,,,B1/B2/E2/6,,,6,B1/B2/E2,,6,,B1/B2/E2/5,,,,B1/B2/E2/4,,,,2x-7[8:1]/3x-6[8:1],2x/3x,,,2x/3x,,,,{8}
1-5[8:1]/8,8,7/1,6,1-3[8:1]/7,6,5/1,4,1-4[8:1]/5,5,1/6,6,1-5[8:1]/6,7,8/1,8,7/8,3/4,1/2,5/6,{16}7,2,6,3,{32}4,5,6,7,8,1,2,3,4-8[8:1]/5-1[8:1],,,,{8},4/5,,1x>4[8:1]/8x<5[8:1],4/5,1b/8b,,3h[8:1]/6h[8:1],,{16},,,,7/1,,,2/6,,,3/5,,3/5,,,,,,,,2/8,,,7/3,,,6/4,,6/4,,,,,,,,6/2,,,3/7,,,2/6,,1bz5[2:1]*s5[2:1],,,{8},{4},,{16},,,
7/1,,7,,7/2,,7,,3/7,,7,4,7,,7,,2/8,,2,,2/7,,2,,6/2,,2,5,2,,2,,
1,7,5,7,3,7,5,7,1,8,2,7,1,8,2,7,{48}8bpp6[2:1]/1bqq3[2:1]/E8/E2/B7/B2/Cf/B5/B4/E5/B6/B3,,,,,,,,,,,,,,,,,,,,,,,,,,,,,,,,,,,,,,,,,,,,,,,,{16}
2/7,,6,5,6,,2/7,,3,4,3,,6v1[8:1]/3,,2/7,,6/3v8[8:1],,2,,3/6v1[8:1],,7,,6/3v8[8:1],,2,,3/6,,7,,3/6,,7,8,7,,3/6,,2,1,2,,{32}1bp4[8:1]*q6[8:1],2/8,3/7,4/6,5,,,,,,,,,,,,{8}
6-2[8:1]/3,5,6/3-7[8:1],4,3/6,5,{16}
3/7,,1,1,1,,2/6,,8,8,8,,1/7,,3/5,,3/6,,8,6,7,,3/6,,1,3,2,,3/6,,3/6,,7,5,6,2,4,3,8,6,7,1,3,2,8,1,7,2,{48}8b,7,6,5,,,2,,,2,,,8b,7,6,5,,,2,,,2,,,8b,7,6,5,,,8b,7,6,5,,,8b,7,6,5,,,8b,7,6,5,,,8bp1[1:1],,,,,,{8},{4},,,,{8},,,,,,7>3[1:1]/5-1[1:1],,,,,,,,,,,,,,,,
{16}B8/C,,,,B7/C,,,,B6/C,,,B5,C,,B4,,B3/C,,,,B2/C,,,,B1/C,,,B8,C,,B7,,{16}
3,6,2,7,3,6,4,5,{32}3,4,5,6,7,8,1,2,3/7,6,5,4,3,2,1,8,7qq7[2:1]*pp7b[2:1]/3b,
