&title=【我叉插我】you said
&artist=Chilli Beans.
&first=0.01
&des=Mr. BLUE ROSE
&des_5=Mr. BLUE ROSE
&lv_5=13+
&inote_5=(78){4},{8},,,,,,5h[16:3],
,,5/6h[8:3],,,B4,E6,
3h[16:3],,,3/4h[8:3],,,{4}C,
{8}5h[16:3],,,5/6h[8:3],,,B1,E8,
3h[16:3],,,3/4-8[8:1],{16},,,,,,,,6b/5h[16:3],
,,4h[16:3],,,{8}2h[8:3],{4}C,{8}8,2,
{16}6/4h[16:3],,,3h[16:3],,,{8}8h[8:3],{2}4<7[8:1],
{16}1/2h[16:3],,,3h[16:3],,,{8}1h[8:3],{4}C,{8}8,2,
{16}5/3h[16:3],,,2h[16:3],,,{8}8h[8:3],{2}4pp5[6:1],
{16}3/4h[16:3],,,5h[16:3],,,{8}7h[8:3],{4}C,{8}1,7,
{16}3/5h[16:3],,,6h[16:3],,,{8}1h[8:3],{2}5>2[8:1],
{16}8/7h[16:3],,,6h[16:3],,,{8}8h[8:3],{4}C,{8}1,7,
{16}4/6h[16:3],,,7h[16:3],,,{8}1h[8:3],{2}5qq6[4:1],
8-5[32:3],4-1[32:3]/1-4[32:3],
{8}1>4[32:3]/7<4[32:3],4pp5>2[4:1],,,{4}8,6V47[32:5],
,3-1[32:3]/8-3[32:3],{8},,1,7,
{16}8/4,,,6/3,,,{8}2h[4:1]/4h[4:1],{64},,,,,,,,,,,,,,,,E3/E6,E4/E7f,,,,,,,,,,,,,,,{8}4bpp6[32:3],
3/5qq3[32:3],,,8-3[32:3],7/1-6[32:3],,,5<8[32:3]*>2[32:3],
2/8q2[4:1],,,{4}3h[4:1],E5f,
{8}7/5,{16}3-8[32:3],4,{4}2V47b[32:5],{8},,8<5[8:1],5>3[32:3],
{2}3qq4[4:1]/8pp2[8:1],7qq8b[16:3],
{8}1bxqq7[32:3],2/8pp2[32:3],,,5>2[32:3],6/4<7[32:3],,,{4}8>3[32:3],
4p7b[32:5]/8p3[32:5],8/4,E5f,
{2}7v6-4b[16:3]/8z4[16:3],3-6[8:1],
{4}6v3[8:1],3-5b[32:3]/6-4b[32:3],{8},,7/5,2/1,
4b-8[12:1]/8b-4[12:1],1/5-2[12:1],,,4-8[12:1]/8-4[12:1],5/1-5[12:1],,,4>1[32:3]*p8[32:3],
1pp5[4:1],,,{4}7h[4:1],Cf,
{8}5/7,{16}3V58[6:1],4,{4}2V41b[6:1],{8},,8<5[8:1],5>3[32:3],
{2}3qq5[4:1]/8pp2[8:1],7qq1b[16:3],
{8}8bx-6[12:1]/5bx-8[12:1],4/1-4[12:1],,,8-6[12:1]/5-8[12:1],4/1-4-8[8:1],,,{4}6p2[32:3],
6<4b[32:7]/2p6[32:3],2/6,Cf,
{16}2/8<3[16:3],,,3pp2[4:1],,,,,,,,,{8}1,5,
{4}2/8<3pp2b[32:13],{8}8b/1b,{16}2,2,1,1,8,8,{8}7x,2/6,
4bpp6[32:3]/8b-4[32:3],1/5qq3[32:3],,,8-3[32:3]/4-8[32:3],5/1-6[32:3],,,4>1[32:3]*<7[32:3],
1pp5b[32:9]/7pp6b[32:9],,,,,{4}E1f,
{8}6/4-8[32:3],{16}3<6[32:3],4,{8}2<7b[32:3],3,{4}2,{8}8<5[8:1],5>3[32:3],
{2}3qq6[4:1]/8pp2[8:1],{4}1s5b[32:5],1/5,
{8}1bxqq7[32:3]/5bx-1[32:3],4/8pp2[32:3],,,1-5[32:3]/5>2[32:3],8/4<7[32:3],,,{4}8qq8[16:3],
8qq4b[32:7]/3>5[32:7],,Cf,
{2}8bz4[16:3]/4b-6v7b[16:3],6-4[32:3]/3-6[32:3],
7-3b[8:1]/6-1b[8:1],{4}4-1[32:3],4b/E1f,
{8}5h[16:3],,,5/6h[8:3],{4}C,8x-5[8:1],
{8}4h[16:3],,,4/3h[8:3],{4}C,{8}1,3,
5h[16:3],,,5/6h[8:3],{4}C,8x<5[8:1],
{8}4h[16:3],,,4<6[32:13]/3<6[8:3],
E
