&title=きみとなる
&artist=tokiwa feat. 星界
&first=0.11
&lv_5=13
&des=ぼくになれ
&wholebpm=112
&inote_5=(112)
{4},,,C,
{24}3h[24:6],,,1,,,4h[24:5],,1,,,3,
5,,5,4,,,47,,,6,,,
{24}4h[24:6],,,1,,,5h[24:5],,1,,,3,
4,,4,2,,,18,,,7,,,
{24}6h[24:6],,,8,,,5h[24:5],,8,,,6,
4,,,5,,3,4,,,2,,,
{24}5h[24:6],,,8,,,4h[24:2],,8,,,,
34,,,56,,,78,,,12,,,
{24}3h[24:6],,,1,,,4h[24:5],,1,,,2,
5,,6,4,,,7,,,5,,,
{24}4h[24:6],,,1,,,5h[24:5],,1,,,2,
4,,5,3,,,12,,,8,,,
{24}6h[24:6],,,8,,,5h[24:5],,8,,,6,
4,,,7,,4,5,,,34,,2x,
{24}5h[24:6],,,8,,,4h[24:2],,8,,,,
3h[24:5],,,Ch[12:1],,,,,,,,,
{24}6-4[12:1],,,4,,,E2,,,,,,
6-4[12:1],,,4,,E3,,,,,,,
{24}2-4[12:1],,,4,,,E7,,,,,,
2-4[12:1],,,4,,,E6,,,,,4x/7xh[12:2],
{24},,,5,,,6,,6,4h[12:3],,,
5,,,7,,,3,,3,,,2h[12:2]/4,
{24},,,5,,5,3,,,1b,,,
2b/8b,,,7,,,3,,3,4,,2h[12:2]/5-8[24:13],
{4},,,{24}E2,,4,3,,,
{24}7-5[12:1],,,8,,8,7,,,B1,,B2,
7-5[12:1],,,18,,,7,,C,,,2x/5xh[24:3],
{24},,3,4,,4,2-4[12:1],,,18,,,
2,,,6,,,4,,C,,,2h[24:3]/8,
{24},,7,1,,1,5pp7[12:2]*qq3[12:2],,,2b/8b,,,
5bx,,,,,,,,4,5,,,
{24}3h[24:3],,,4,,4,3h[24:3],,,2,,2,
3,,4,,,25,,,5,4,,,
{24}6h[24:3],,,5,,5,6h[24:3],,,7,,7,
6pp4[12:3],,,5h[24:3]/7,,,,,,,,,
{24}2,,2,4,,4,5qq4[12:2],,5,7,,7h[24:4],
,,,,,,6,,,6h[24:3],,,
{24}8,,8,5,,5,4pp5[12:2],,4,1,,1h[24:7],
,,,,,,4x,,,18,,,
{24}2-4[12:1],,,5,,,8-6[12:1],,8,5,,,
1-3[12:1],,,4,,,7-5[12:1],,7,4,,,
{24}8h[24:3],,,4h[24:3],,,2,,2,5,,5,
3h[24:3],,,1,,,28,,28,,,3,
{24}4,,,1,,,47,,47,,,6,
5,,,18,,,2,4,3,7,5,6,
{24}1b,,,2b/7b,,,3b/6b,,,4b/5b,,,
8bv1[12:1],,,,,,,,,,,,
{24}4-2[12:1]/5,,,7,,,4,,5,,,5,
8-3[12:1],,,7,,7,8,,,5h[24:3],,,
{24}2-4[12:1],,,1h[24:3],,,2,,,5,,5,
8h[24:9],,,7,,,6,,,5,,,
{24}24,,,1,,,5-3[12:1]/7,,,8,,8,
5V74[12:2],,,6h[8:1],,,,,,,,8,
{24}1,,,1,,2,1,,,8,,7h[24:10]/1,
,,,6,,,5,,,4,,,
{24}2-5[12:1]/4,,,1,,,28,,,7,,7,
5p4[24:5],,5,8,,8h[24:4],,,,,,,
{24}7,,7,4,,4,5p4[24:5],,5,2,,2h[24:4],
,,,,,,1,,,8,,7,
{24}5,,2,4,,6,5,,3,4,,8z4[24:3],
1s5[24:2],,,,,,,,,,,,
{24}3h[8:1]/4,,,1,,,4h[8:1]/3,,1,,,3,
4,,4,2,,,18,,,3,,,
{24}4h[8:1]/5,,,1,,,5h[8:1]/4,,1,,,3,
4,,5,4,,,12,,,8,,,
{24}6h[8:1]/5,,,8,,,5h[8:1]/6,,8,,,6,
5,,,4,,3,4,,,78,,,
{24}5h[8:1]/4,,,8,,,4h[8:1]/5,,8,,,,
15,,,37,,,26,,,48,,,
{24}C,,,3,,3,4,,,6,,6,
5,,,45,,,B3/E3/B6/E7/Ch[24:3],,,,,,
{24}4x-1[8:5],,,,,,5,,,,,,
{48}E7,B6,{24},,,,,,,,,,,
{24}4-1[8:5],,,,5,,,,,5,,,
{48}E7,B6,{24},,,,,5,,,,,,
{24}4-1[8:5],,,,,,5,,,,,,
{48}E7,B6,{24},,,,,5,,,,,,
{24}Cf,,,,,,,,,,,,
,,,,,,8/1h[4:1],,,,,,
{24}7<5[12:1],,,4,,,1>3[12:1],,1,4,,,
8<6[12:1],,,5,,,2>4[12:1],,2,5,,,
{24}1,,1,5,,5,7,,7,3,,3,
4h[24:3],,,1,,,24,,24,,,1,
{24}8,,,3,,,56,,56,,,7,
4,,,2,4,3,7,5,6,1,8,1,
{24}2bx/7bx,,,3bx/6bx,,,4bx/5bx,,3,2bx/4bx,,6,
7bx-2[12:1]/5bx,,,,,,,,,,,,
{24}1-4[8:13],,,,,,,,,,,,
{48}E7,B6,{24},,,,,,,,,,,
{24}5h[8:3],,,,,,,,,,,,
{48}E1,B8,{24},,,,,,,,,,,
{24}8-5[8:13],,,,,,,,,,,,
{48}E3,B3,{24},,,,,,,,,,,
{24}4h[8:3],,,,,,,,,,,,
{48}E1,B1,{24},,,,,,,,,,,
{24}1-4[8:5],,,,,,5,,,,,,
{48}E7,B6,{24},,,,,5,,,,,,
{24}8-5[8:5],,,,,,4,,,,,,
{48}E3,B3,{24},,,,,4,,,,,,
{4}5/1h[1:1],,8h[2:1],,
{128},Cf,,,,,,,,,,,,,,,{8},,,,,,,
{24}4b-2[12:1]/5b,,,1,,,4/5-7[12:1],,4xh[24:3],,,1,
5-2[12:1],,,4,,4,5,,,5x,,5,
{24}7-5[12:1],,7,8h[24:3],,,7,,,1,,1,
8h[8:3],,,7,,,6,,,5,,2,
{24}4,,5,3,,2,4-7[12:1],,5,3,,2,
4V25[6:1],,,4xh[8:1],,,,,,,,3,
{24}1V74[6:1],,8,2,,3,1,,2,,,1h[24:7]/3x,
,,,2,,,3,,,34,,,
{24}1/8-4[12:1],,,6,,,8/1,,,3,,3pp4[24:6],5,,5,1,,1h[24:4],,,,,,,
{24}2,,2,8,,8,6qq5[24:7],,6h[24:3],,,8h[12:2],,,,,,,7,,,6,,7,
{24}1,,2,8,,7,1>4[12:1],,2,8<5[12:1],,7,1-5[12:1],,,8-4[12:1],,,1p8[12:3],,,8,,,
{24}1h[12:3],,,,,,,,,28,,,3h[12:3]/7,,,,,,4,,4,,,25,
{24},,7,5,,4,6-3[12:1],,7,5,,4,6,,1,1h[12:1],,7,7h[24:3],,,5h[24:21],,,
{24}4h[12:9],,,,,,,,,,,,,,,,,,{64}E4,E3,E2,E1,E8,E7,E6,,{24},,,
{24}3h[8:1]/4,,,1,,,4h[8:1]/3,,1,,,3,4,,5,2,,,18,,,34,,,
{24}4h[8:1]/5,,,1,,,5h[8:1]/4,,1,,,2,4,,5,3,,,6,,6,4,,4h[24:3],
{24},,2,4,,4,5>7[24:6],,5,7h[24:3],,,,,,,,,5,,4/6h[24:3],,,4,
{24},,4,2,,2,1-5[12:1],,1,8-4[12:1],,8,1>4[12:1],,,8<5[12:1],,,1,,,8[24:6],,,
{24}4h[8:1],,,8,,,5h[8:1]/6,,8,,,6,5,,4,7,,,18,,,56,,,
{24}5h[8:1]/4,,,8,,,4h[8:1]/5,,8,,,7,5,,4,6,,,1,,2h[24:3],,,4,
{24},,4,2,,2,8pp6[24:6],,8,6h[24:3],,,,,,,,,4,,5/3h[24:3],,,6,
{24},,6,8,,8,1,,1,3,,3,Ch[2:1]/5x-1[56#32:1]*-1[56#32:1],,,,,,,,,,,,
E
