&title=Pentiment
&artist=Nothing But Requiem with Museo
&first=0
&des=rbhd
&clock_count=4
&lv_5=14+
&inote_5=(222){4},,,,,,,,
2/8q4[4:2],2h[4:3]/8,,,5b,6,7,8,
1>4[4:2]/3,1/3h[4:3],,,5b,6,7,7,
1p5[4:2]/7,1/7h[4:3],,,4b,3,2,1,
6/8<5[4:2],6h[4:3]/8,,,4bw8[4:2],,,,
{8}1/8,7,6/4,4,4,4/5,5,5,5/3,3,3,3/6,6,6,2,7,
1/8,2,3/5,5,5,5/4,4,4,4/6,6,6,6/3,4h[8:3]/5h[8:3],,,,
{16}8,1,8,1,8,1,8,1,8<5[8:1],1,8,1,8x,,,,
1,8,1,8,1,8,1,8,1>4[8:1],8,1,8,1x,,,,
8V64[4:1],,,,8-2[8:1],,,,8-4[8:1]*-6[8:1],,,,8x,,,,
2,3,4,5,3,4,5,6,8-4b[8:1],,,,,,,,
{8}1/2,1/2,3/5,3/5,1/2,1/2,4/6,4/6,1/2,1/2,3/5,3/5,1/2,1/2,4/6,4/6,
2/8,2/8,3/4,3/4,2/8,2/8,4/6,4/6,5b/6b,,4b/7b,,3b/8b,,1b/2b,,
8/7,8/7,6/4,6/4,8/7,8/7,5/3,5/3,8/7,8/7,6/4,6/4,8/7,8/7,5/3,5/3,
7/1,7/1,6/5,6/5,7/1,7/1,5/3,5/3,{6}3b/4b,2b/5b,1b/6b,{8}7b/8b,,,,
1/2,1/3,4/5,3/5,1/2,1/3,4/5,3/5,2/8,1/7,4/6,3/5,2/8,1/7,4/6,3/5,
8/7,8/6,5/4,6/4,8/7,8/6,5/4,6/4,5b/6b,,4b/7b,,3b/8b,,1b/2b,,
8/7,8/6,5/4,6/4,8/7,8/6,B4/B5,,1/2,1/3,4/5,3/5,{16}2,1,3,8,4,5,3,6,
{8}2-6[8:1],6-2[8:1],2,7,8-4[8:1],4-8[8:1],8,2,,1-7b[8:1]*p5[8:1],1,1>3[8:1]*-4b[8:1],,1,,,
2-7-2[4:1]/6-3-6[4:1],,2-5[8:1]/6-1[8:1],,,,4x/8x-5[8:1],,4b/8x-3[8:1],,4b/8x-5[8:1],,4b/8x-3[8:1],4b,4b/8x<5[8:1],,
4V28[4:1]/8V24[4:1],,8-4[8:1],,,,1>4[8:1]/5,,1V73-1[4:1]/5-1[4:1],,1w5[4:1],,,,,,
7-2-7[4:1]/3-6-3[4:1],,7-4[8:1]/3-8[8:1],,,,5x/1x-4[8:1],,5b/1x-6[8:1],,5b/1x-4[8:1],,5b/1x-6[8:1],5b,5b/1x,,
C/B1/B2/E2/B5/B6/E6,,{16}4,5,3,6,4,5,2,7,4,5,1,8,4,5,4,5,3,6,3,6,2,7,2,7,{8}1b,,
4/8>3[8:1],2,4/8<5[8:1],6,4/8>3[8:1],2,4/8-5[8:1],6,4/8-3[8:1],2,4/8-5[8:1],6,4/8-4[8:1],2,4/8,,
5/1<6[8:1],7,5/1>4[8:1],3,5/1<6[8:1],7,5/1-4[8:1],3,5/1-6[8:1],7,5/1-4[8:1],3,5/1-5[8:1],7,5/1,,
4/8-3[8:1],2,4/8-5[8:1],6,4/8-4[8:1],2,4/8,,5/1-6[8:1],7,5/1-4[8:1],3,5/1-5[8:1],7,1/5,,
3/7,3/7,2/6,2/6,1/5,1/5,4/8,4/8,7x,7x-3[8:1],,2x,2x-6[8:1],,8x<1[1:7],,
{4}E3,,E7,,E4,B4,B5,E6,E1,,E5,,E8,B8,B1,E2,E7,E6,E3,E4,E8,B6,E2,B3,C,,,,E5,,{16}4x,5x,4x,5x,4x,5x,4x,5x,
{8}4h[8:1],6,4h[8:1],2,4h[8:1],7,4h[8:1],1,4w8[2:1]*-8[2:1],8,4bx,,,,,,
5h[8:1],3,5h[8:1],7,5h[8:1],2,5h[8:1],8,5w1[2:1]*-1[2:1],1,5bx,,,,,,
2b/4b,,3,4,1b/5b,,6,,5b/7b,,6,5,4b/8b,,3,,
2b/4b,,3b/4b,,5b/7b,,5b/6b,,1b/5b,,3b/4b,,4b/8b,,5b/6b,4x,
Ch[4:7]/3,,3,,2,,2,,1,,1,,2,,3,3x,
Ch[4:6]/6,,6,,7,,7,,8,,8z4[4:1],8x,,,,,
3,3,3,3,6,6,6,6,5/2,2,2,2,4/7,7,7,7,
6/1,1,7/1,1,3/8,8,2/8,8,{16}1,8,1,8,1,8,1,8,1,8,1,8,1,8,1,8,
1x,2x,3x,4x,8x,7x,6x,5x,E2,B2,B3,E4,E8,B7,B6,E6,4x,3x,2x,1x,5x,6x,7x,8x,B2,B1,B8,B7,Cf,,,,
3,4,3,4,2,4,2,4,1,4,1,4,8,4,8,4,1,5,1,5,2,6,2,6,3,7,3,7,4h[8:1],,8,1,
6,5,6,5,7,5,7,5,8,5,8,5,1,5,1,5,8,4,8,4,7,3,7,3,6,2,6,2,5,1,5h[8:1],,
1,8,1,8,2,7,2,7,3,6,3,6,4,5,4,5,3-5[8:1]/6-4[8:1],,,,3/6,,,,1-5[8:1]/8-4[8:1],,1/8,,1/8,,,,
{4}3v8[8:1]/7v4[8:1],,6v1[8:1]/2v5[8:1],,3V17[4:1]/7V53[4:1],3-7[8:1]/7-3[8:1],,{8}E3,E7,
{16}3,4,3,4,2,5,2,5,1,6,1,6,8,7,8,7,1,2,3,4,8,1,2,3,7,8,1,2,6,7,8,1,
3,6,4,5,3,6,4,5,2,7,4,5,2,7,4,5,3,3,3,,6,6,6,,2,2,2,,7,7,7,,
6,5,6,5,7,4,7,4,8,3,8,3,1,2,1,2,{8}4,2/5,,5/6,4/7,8,1,2,
3b-7[8:1],,3/5,6b-2[8:1],,6/2,{12}1,1,1,{8}8b,8bw4[8:1]*-4b[8:1],,8b,,,,,
2x/6x,,2x,,2x,,3x,2x,1x,,3x,,2x,,1/5,,3x/7x,,7x,,7x,,6x,7x,8x,,8x,,3/7,{16}5,5,{8}5,4/6,
3x/7x,,3x,,3x,,4x,3x,2x,,1x,,7x,,4/8,,2x/6x,,6x,,6x,,6x,,1/5,,1x-5[8:1],,1x,,,,
{16}7h[8:1]/C,,,2h[8:1]/C,,,5,4,7,,B6,,2,,B3,,{4}8-3-6-1>4[2:1],,,,
{16}2h[8:1]/C,,,7h[8:1]/C,,,4,5,2,,B3,,7,,B6,,{4}1-7-4-2<6[2:1],,,,
{8}4,4,4,4,5,5,5,5,3,3,3,3,6,6,6,6,2,2,2,2,7,7,7,7,1,1,8,8,1h[4:1]/8h[4:1],,,,
{16}4,5,4,5,3,6,3,6,2,7,2,7,1,8,1,8,3,6,3,6,2,7,2,7,1,8,1,8,,,,,
3,6,3,6,3,6,3,6,2,7,2,7,2,7,2,7,1,8,1,8,1,8,1,8,1,8,1,8,1,8,1,8,
{12}1x,2x,3x,8x,7x,6x,2x,3x,4x,7x,6x,5x,3x,2x,1x,6x,7x,8x,4x,3x,2x,5x,6x,7x,
{16}1,8,2,7,1,8,3,6,2,7,4,5,3,6,4,5,{4}Ch[1:1],,,,
E3/E7,,,,6b/7b,5b/8b,1b/4b,2b/3b,
{8}Cf/B2/B3/E3/B6/B7/E7,,1/8,1/8,1/8,1/8,2-6[8:1]/7,2/7,2/7-3[8:1],7,4-8[8:1]/7,4,4/5-1[8:1],5,4/5,4,
4/5,4/5,4/5,4/5,4/5,4/5,3-7[8:1]/6,3/6,3/6-2[8:1],6,1-5[8:1]/6,1,1/8-4[8:1],8,1/8,1,
2/7,2/7,2/7,2/7,2/7,2/7,2/7,2/7,3/6,3/6,4/5,4/5,4/5,E7,C,E3,
3/7-4[8:1],7,3-8[8:1]/7,3,3/7-4[8:1],7,3-8[8:1]/7,3,3/7-4[8:1],7,3/7,3,B2,,B7,,
6/2-5[8:1],2,6-1[8:1]/2,6,6/2-5[8:1],2,6-3[8:1]/2,6,6/2-7[8:1],2,2/5-8[8:1],5,1-4[8:1]/5,1,1/6,6,
{16}7,8,{8}7,5/6,5/6,4/5,3/4,3/4,{16}2,1,{8}2,3/4,5/6,1/8,{16}3,4,1,,6,5,8,,
{4}3x/4bw8[8:1],,6x/5bw1[8:1],,3xh[8:1]/6xh[8:1],4xh[8:1]/5xh[8:1],Ch[2:1],,
B2/B7,,,,E6,B5,B4,E4,E1,,,,E5,,,{8}E3,C,
(210){4}E7,,,,B2/B1,,B7/B8,,
(200)B4/B5/E5,,,,,,D3/E3/E7/D7/Ch[2:3],,,,,,
(222){16},,,,1b-5[8:1]*-5[8:1],8x,1b,,C,,7b,6x,7bv4[8:1]*v4[8:1],6x,7b,,C,,2b,3x,2bv5[8:1]*v5[8:1],3x,2b,,C,,4b,,6b/8x,,1b/3x,,2b/5x,,4b/7x,,
8b-4[8:1]*-4[8:1],1x,8b,,C,,2b,3x,2bv5[8:1]*v5[8:1],3x,2b,,C,,7b,6x,7bv4[8:1]*v4[8:1],6x,7b,,C,,5b,,
{12}3b/7x,3x/7b,3b/7x,1x/5b,1b/5x,1x/5b,{4}E2/E4/E6/E8/Cf,,,E
