&title=有明/Ariake
&artist=SIINCA
&first=0
&des=fullower
&lv_5=13+
&inote_5=(190)
{1},
{1}3h[1:1],4h[1:1],5pp3[2:3],,
{1}6h[1:1],5h[1:1],4qq5[2:3]*>5[2:3],,
{8}3h[4:1]/4h[4:1],,,,4,3,5,4,
{8}5h[4:1]/7h[4:1],,,,5,7,4,6,
{8}2h[4:1]/5h[4:1],,,,5,2,6,3,
{8}4>8[2:1]/8<4[2:1],,,,,,,,
{8}6h[4:1]/5h[4:1],,,,5,6,4,5,
{8}4h[4:1]/2h[4:1],,,,4,2,5,3,
{8}7h[4:1]/4h[4:1],,,,4,7,3,6,
{1}5/1-3-5-7v4[4:3],
{1}1b>7qq8[4:13]*>7qq2[4:13],,,,
{8}7h[1:2],,,E6,,,E5,,,E4,,,E3,,,,
{8}1h[1:2],,,E3,,,E4,,,E5,,,E6,,7x-3[8:1],,
{8}7bx/Cf,,,,2h[8:1],4h[4:1],,3h[8:1],4h[4:1],,2h[8:1],4h[8:1],3h[8:1],4h[8:1],2-7[8:1],,
{8}6,5,4h[4:1],,1h[8:1],4h[4:1],,3h[8:1],4h[4:1],,1h[8:1],4h[8:1],3h[8:1],4h[8:1],1,1,
{8}8,7,5h[4:1],,7h[8:1],5h[4:1],,6h[8:1],5h[4:1],,7h[8:1],5h[8:1],6h[8:1],5h[8:1],7-2[8:1],,
{8}3,4,5h[4:1],,8h[8:1],5h[4:1],,6h[8:1],5h[4:1],,8h[8:1],5h[8:1],6h[8:1],5h[8:1],8,8,
{16}1/7,,,,B2/B6,,A5,B4,A3,,Ch[16:3],,,,,,
{16}8/2,,,,B7/B3,,A4,B5,A6,,A8/E8,,,
A2/E3,,,
{16}5/3,,,,B6/B2,,A1,B8,A7,,Ch[16:3],,,,,,
{16}4/6,,A7,E8,E1,,C,,A3,E3,E2,,8,,,,
{8}5/7,7,4/6,6,3/5,5,2/4,4,3/1,1,4/2,2,5/3,3,6/4,4,
{8}5/7,1/8,2/4,1/8,
{16}2-6[8:1],7-5-8-4-1-3[1:1],2,7,
{1}2,
{4},7-3b[8:1],,
{16}1-7[8:1],,,6-2[8:1],,,3V51[4:1]*V57[4:1],,,5,,,,,,,
{16}8-2[8:1],,,3-7[8:1],,,6V48[4:1]*V42[4:1],,,4,,,,,,,
{16}1-6[8:1],,,5-2[8:1],,,4,,,8,,,1,,2z6[4:1]/8s4[4:1],,
{2},
{32}3bqq4[2:3]/7bpp6[2:3],2/8,1,,,,,,{8},,{2},{1},
{1}5>5[4:5]*<5[4:5],{2},
{8},,
{16}7-3[8:1],3,7,3,{4}7b,
{8}2^5[8:1],1^6[8:1],2,1,,4,
{8}3-8[8:1],5-1[8:1],3,5,2w6[8:1],2,2,,
{8}4bh[8:1]/8bh[8:1],,
{8}7-4[8:1],3v8[8:1],7,3,,1,
{8}2-6-4[16:5]/7-3-5[16:5],,2/7,,,,1b-4[8:1]/8b-5[8:1],,
{8}1/8,,
{8}7^4[8:1],8^3[8:1],7,8,,5,
{8}6-1[8:1],4-8[8:1],6,4,7w3[8:1],7,7,,
{8}5bh[8:1]/1bh[8:1],,
{8}2,3,4,5,6,7,1-7-3-5[2:1]/8-2-6-4[2:1],,,,,,,,
{8}6/A2/E2/E3/B2,6,6,6,4/A8/E8/E1/B8,4,4,4,
{8}5/A1/E2/E1/B1,5,5,5,3/A7/E8/E7/B7,3,3,3,
{8}5/A2/B2/E2/D2,5,6,6,4/A7/B7/E8/D8,4,3,3,
{1}1pp5[4:3]/5pp1[4:3],
{2},
{8}3/A7/E8/E7/B7,3,3,3,5/A1/E2/E1/B1,5,5,5,
{8}4/A8/E8/E1/B8,4,4,4,
{1}6pp3[8:5]/A2f/E2/E3/B2,
{16},,2-4[8:1],5,2,5,2-8v6[4:1],,,,,,,,,,
{16}3b/7b,,4,6,,2h[8:1],,1,,7,8,7,8,,,,
{16}2/6,,3,5,4,5,6,5,7-3[8:1],,,,,,,,
{16}8,2,8,2,,4/7,,3,5,,2,1,2,1,,,
{16}7/3,,6,4,5,4,3,4,2,4,1,4,8,4,7,,
{16}2b/6b,,5,3,,7h[8:1],,8,,2,1,2,1,,,,
{16}7/3,,6,4,5,4,3,4,2-6[8:1],,,,,,,,
{16}1,7,1,7,,5/2,,6,4,,7,8,7,8,,,
{16}2/6,,3,5,4,5,6,5,7,5,8,5,1,5,2,5,
{2}3b>6[2:1],,4h[4:1]/5,3/5h[4:1],
{2}5/6<3[2:1],,5h[4:1]/4,6/4h[4:1],
{8}3/5,3,3/A7/A8/D8/E8/B7/B8,,6/4,6,6/A2/A1/D2/E2/B2/B1,,
{8}7/3,7,7/A4/A5/D5/E5/B4/B5,,2/6,2,2/A5/A4/D5/E5/B5/B4,,
{8}3/8,2,1/A3/A4/D4/E4/B3/B4,,6/1,7,8/A6/A5/D6/E6/B6/B5,,
{16}4,5,4,5,3,6,2,7,1bx-3[8:1]/8bx-4[8:1],,,,1bx-5[8:1]/8bx-6[8:1],,,,
{1}1bx/8bx,,
{1}1b-3-5-7v4[2:3]/B5/B6/E6f,,{16},
{1}1>4qq6[2:3],,1>5pp3[2:3],,1w5[16:23],{16},,,
{4},,,
{8}6,4,5,3,4-6[8:1],,,,
{8}3,6,4,7,5-2[8:1],,,,
{8}7,2,6,1,5-1[8:1],,,,
{8}2/8,3/7,,1/7,2-4[8:1]/6-4[8:1],,,,
{8}3,5,4,6,5-3[8:1],,,,
{8}6,3,5,2,4-7[8:1],,,,
{8}2,7,3,8,4-8[8:1],,,,
{8}7/1,6/2,,8/2,7/3,4/6,,,
{1}A1f/E1/E2/B1/D1/D2/A8/A2,
{8}5h[4:1]/7h[4:1],,,,5,7,4,6,
{8}2h[4:1]/5h[4:1],,,,5,2,6,3,
{8}4>8[2:1]/8<4[2:1],,,,,,,,
{8}6h[4:1]/5h[4:1],,,,5,6,4,5,
{8}4h[4:1]/2h[4:1],,,,4,2,5,3,
{8}7h[4:1]/4h[4:1],,,,4,7,3,6,
{8}1/5w1[2:1],,,,,,,,
{8}2,4/6,8h[4:1],5,5,8h[4:1],7,7,8h[4:1],5,5,8h[8:1],7,8h[8:1],6,5,
{8}7,5/3,1h[4:1],4,4,1h[4:1],2,2,1h[4:1],4,4,1h[8:1],2,1h[8:1],3,4,
{4}5^8[4:1],8^3[4:1],3^6[4:1],6^1[4:1],
{4}1>5[4:1],5<1[4:1],1,5,
{16}4,6,4,6,3,7,3,7,2,8,2,8,1,1,1-7-2-6-3-5[4:3],,
{1},
{1}E1f,,,,
{4}3h[4:3],,,4h[1:1],,,{8}5,,5,,
{4}6h[4:3],,,5h[1:1],,,{8}4,,4,,
{1}E5f,
