&title=春めく
&artist=ナナツカゼ
&first=0.5
&des=n41 as ねこちゃん
&lv_5=13.3
&inote_5=(120){4}B3/E3/Ch[1:1],,,,4h[8:1],
4/5,3h[8:1],3/4,
2h[8:1],{8}2/1,2,{4}1h[8:1]/8-6[8:1],{8}1,1,
{4}5h[8:1],5/4,6h[8:1],6/5,
7h[8:1],7/8,{16}1,8,{8}1,{4}B7/B2,
{8}4h[8:1],5,4/6,5,3h[8:1],4,5/2,3,
5h[8:1],4,5/3,4,6h[8:1],5,4/7,8-4[8:1],
,3,{4}3,{8}E6,E5,E4,1b/8b,
,2xh[16:1]/6xh[16:1],2xh[16:1]/6xh[16:1],2xh[16:1]/6xh[16:1],2xh[16:1]/6xh[16:1],2xh[16:1]/6xh[16:1],{4}B2/C/B6,
6>4[8:1],3,2>4[8:1],{8}5,6h[4:3],
,E6,C,E2,,8,{4}8q5[4:1],
{8}6,7,{4}8h[8:3],{8}6,5,4,5-7[8:1]/3-8[8:1],
,53,,1x/7x,B6,8x/2x,{4}B3,
{8}6qq3[8:3],6,3,2,{4}1-5[8:1],{8}8,7,
6,5/7,4,3/5,{4}5/3h[2:1],{8}4,2,
1,8,7-5[8:1],5-8[8:1],7,2qq5[2:1],{4}1,
4h[4:3],{2},{4}5,
{8}3x/4x,4x/3x,{4},{8}5x/6x,5x/6x,{4},{8}1x/8x,
1xh[8:5]/8xh[8:5],{2},{4}E1,
{12}5/2-8[12:1],{24}3,4h[8:1],{3},{12}4/7-1[12:1],{24}6,5h[8:1],{3},{12}2/5-7[12:1],
{24}4,3h[8:1],{3},{12}2>4[12:1]/7<5[12:1],{24}1,8,{3},{12}1/6-4[12:1],
{24}7,8h[8:1],{3},{12}8/3-5[12:1],{24}2,1h[8:1],{3},{12}6/1-3[12:1],
{24}8,7h[8:1],{3},{12}6<8[12:1]/3>1[12:1],{24}5,4,{3},{8}1,
1,2,2,3/4,5,4,6,
8,8,7,7,6/5,4,5,3,
{16}5,4,5,4,6,3,6,3,7,2,7,2,8,1,8,1,
{4}8b-4[12:1],7b-3[12:1],6b-2[12:1],E5f/B4/B5,
{8}8x/4x,7,6/5-8[8:1],4,5/2pp4[8:1],1,2/7-1[8:1],6,
7/3q5[16:5],2,{4}3/6h[8:1],C,{8}7>3>7[2:1],6,
{4}5xh[8:1],{8}4-1[8:1],5,{4}4,{8}8/2,3,
5/4,7,6/5,2,{4}3-8[12:1]/4-7[12:1],E4/C/E8,
{8}1-5[8:1],5-3[8:1],1,6,7-1[8:1],2,7-4[8:1],5,
7>5[16:7],1,7,C,,1,2,3,
{4}4h[8:1],7h[8:1]/5h[8:1],1h[8:1]/2h[8:1],{8}4x/3x,4x/3x,
,E3,E2,E1,E8,E7,{4}5-1[12:1],
{1}Cf/5b<3b[2:1],
{4}4-6[8:1],2-4[8:1],8p1[4:1],C,
5x-3[8:1],7-5[8:1],1p3[4:1],C,
6x-2[8:1],2p7[8:3]*q5[8:3],{2},{4}8x-4[8:1],
4v5[8:1]*v1[8:1],,2/6,
3x-7[8:1],7v6[8:1]*v2[8:1],,1/5,
{8}2z6[4:1],3,6z2[4:1],7,{2}8xh[4:1],
{8}7q3[8:1]/1>3[8:1],8,{4}7/1,{8}5/4,{16}5,5,4,4,{8}6-8v1-3[8:7],
{1}3<6[4:3],
{4},{8}4h[8:1],5,4h[8:1],6,4h[8:1],5,
3/4,2,8,1,8/7,6,4,5,
3-6[8:1],6-3[8:1],3,7,{4}8h[4:1],1>5[4:1],
5<1[4:1],1,{8}5,6,7,8,
2x/1x,B2/E3/B3/E2,,6x/5x,{4}B6/E7/B7/E6,3h[4:1],
4,1-5b[8:1],6pp8pp2pp4pp6[1:1],{8}3x,3x,
{4}3xh[2:1],{2},{4}2w6[12:1],
{1}Cf/B4/B8,
,{8}7,
{4},{8}7h[1:1],{2},{8}8,
{4},{8}8h[1:1],{2},{8}1,
{4},{8}1h[1:1],{2},{8}2,
{4},{8}2h[8:5],{2},{4}A3,
A4,A5,A6,
{8}7-2[4:1],{4},{8}1q5[4:1],{2},{1}Ch[4:3],
{8}3h[8:1],4x,5h[8:1],4x,6h[8:1],5x,4h[8:1],5x,
3h[8:1],4x,5h[8:1],4x,6h[8:1],5x,4h[8:1],5x,
3h[8:1],4x,3h[8:1],2x,3h[8:1],1x,3h[8:1],8x,
7h[8:1],5x,7h[8:1],6x,7h[8:1],8x,7h[8:1],1x,
8,8,7,7,5/6,4,3/5,2,
1,1,2,2,4/3,5,6/4,7,
{16}1,8,1,8,2,7,2,7,3,6,3,6,4,5,4,5,
{4}4b-8[12:1],3b-7[12:1],2b-6[12:1],E1f/B1/B8,
{1}5bx/4bx>5b[4:3],
{4}8-5[8:1],3h[4:1],4h[4:1],{16}3,3,4,4,
{4}2b<6[4:1],{8}6,5,{4}4<8[4:1],{8}1,2,
3,4-1[8:1],5-8[8:1],4b,{4}5b,A7/B7/Cf/B3/A3,
{8}2x/6x,7,1/8-5[8:1],2,8/3qq1[8:1],4,3/6-4[8:1],7,
6<8[8:1],2-5[8:1],6,2,,6/7,8/7,1/8,
{4}1/2>5[8:1],{8}2/8-3[8:1],7,6-1[8:1],5,4p6[16:5]*>6[16:5],3,
{2}4b,{8}4/5,{16}4,4,5,5,{8}3,
2x/6x>3[8:1],7,6/1-5[8:1],2,1/8>3[8:1],7,{4}8/4-1[8:1],
{8}4/5,6,8-5[8:1]/7-5[8:1],1/6,{4}8/7,{8}3/4>6[16:5],2,
{4}3h[8:1],{8}4v1[8:1]*v7[8:1],3,{4}4,6-2[8:1],
{8}6/3-7[8:1],4,3/8<5[8:1]*>3[8:1],8,{4}8,{8}6>4[8:1],7,
6/2-5[8:1],1,2/6-8-3[4:1],7,3-1-6[4:1],4,5,4,
3-7[8:1],2-8[8:1],3,2,,7/5,6/4>5[1:1],3/5,
{1}4b/2h[1:1],
{4},{8}E7,E6,E3,E4,E5,C,
{4}E1f,6/5,3h[8:1],3/4,
6h[8:1],5/7,3h[8:1],2/4,
7h[8:1],8/7-5[8:1],2h[8:1],1/2-4[8:1],
7h[8:1],8/7<5[8:1],2h[8:1],1/2>4[8:1],
{8},6,5h[16:3],{16}6,6,{8},3,4h[16:3],{16}3,3,
{8},6,5h[16:3],{16}7,7,{8},3,4h[16:3],{16}2,2,
{8},3/4-2[8:1],5,4/6,,6/5-7[8:1],4,5/3,
2x,2x,{4}1x/8x,{8}7/2,{16}6,5,4,3,{8}5h[8:1],
{1}E5,
E
