&title=Mizutama-Tripster
&artist=こふ
&first=0
&des=Wangzap
&lv_5=13+
&inote_5=(145)
{1},
{16}38,,2,1,2,,34,,45,,{24}6,5,6,{16}5,,46,,
{16}78,,16,,2/5<8[16:3],,34,,25,3,4,5,6,7,8,1,
{1}6bx/2bxqq4[4:3],7pp6[4:3],
{1}5qq4[4:3],7>6[8:7],{24}E3,B2,B1,{8},,,,,,,
{8}5h[8:3]/4,,,3,6h[4:1]/4,3,3,,7h[8:3]/2,,3,4,6h[4:1]/5,,4,,
{8}5h[4:1]/4,3,3,,4h[8:1]/3,3,5h[8:1]/2,,6h[4:1]/3,,,,7h[4:1]/5,,4,,
{8}6h[4:3]/3,,,5,4,3,5,,5h[4:1]/4,,3,,4h[4:1]/2,,3,,
{8}5h[4:1]/4,,3,,6h[4:1]/5,,4,{16},38,{8}3hx[4:3]/8xp1>7[4:3]b,,,,,,,,
{16}2,,2,,3<5[8:1],,2,1,3,,8h[4:1],,,,1,,,,2,,2V46[16:5],,,,7,,8,,1,,,,
{16}2,,2,,3<7[8:3],,2,1,3,,7>2[4:1],,,,2>5[4:1],,,,5qq1[8:5],,6h[8:5],,,,,,,,,,,,
{16}7,,7,,6>4[8:1],,7,8,6,,1h[4:1],,,,8,,,,7,,7V53[16:5],,,,2,,2,,1,,1,,
{16}8p4[16:3],,,,6,,6h[4:1],,,,3,,2,,1,,7,8,7qq4[2:1],,,,3,,,,2,,2,,,,
{16}2,1,2,,3,4,3<6[16:3],,,,7,,7-4[16:3],,7,,,,3,,3V15[8:3],,3,,,,5,,,,6,,
{8}7h[2:1],6,5,4,,13,28,1/7qq1>6[4:3]b,,,,,,,B3/B4/E4f,,
{16}2b,1,2,8,,8,7,8,,8,1,8,,8,6,8,5,7,4,6,,2,4,3,4,,{24}2,1,2,{16}1-5[8:1],,8,,
{16}17,,,6,4,,{24}3,4,3,{16}4>1[8:1],,,5,,,6,,7h[16:3],,,5,6,,45,,3v1[8:1],4,,5,,6,6,,
{16}7b,8,7,1,,1,2,1,,1,8,1,,1,3,1,4,2,5,3,,7,5,6,5,,{24}7,8,7,{16}8-4[8:1],,1,,
{16}82,,,3,5h[8:1],,4,,37,,{24}6,5,6,{16}5<8[8:1],,4,,3x,3x,,4x/2x,,1x/5x,,8x/6x,8x>3[8:1]/6x,,1x,,{24}4,5,6,7<8[4:1]b,,,
{8}C1f,,,5x,4-7[8:1],3,2-5[8:1],1,8-3[8:1],7,6-1[8:1],5h[16:1],4-7[8:1],3,2<3[2:1],1,
{16}6,,,6,,,8,,8h[4:3],,,,,,2,,2pp5[2:1],,,,,,,,6,,7,,8,,,,
{2}1xV75-8[2:1],B3/B4/E4,3xV57-4[2:1],B2/B1/E2,8xV64-7[2:1],B2/B3/E3,C1h[2:1],B7/B8/B3/B4,
{2}1x-4V62[2:1],E8/B7/B8,7x-4V26[2:1],E1/B8/B1,8x-3V51[2:1],B7/E7/B6,C1h[2:1],,
{16}5h[8:1]/1,,3,4,2h[8:1],,6,5<8[16:3],7,,4,5,3,,3v6[16:3],,2,,38,,,,7h[8:1],,{12}5,5,6,74,,,
{24}3,4,3,{16}4,,2>5[16:3]/5,,1,,25,,6,,7,,8qq8[4:1],,,,8>7[2:1],,,,E6,,E5,,E4,,E3,,E2,,
{16}1hx[4:1],,3,4,5,6,7,8,1V75[16:3],,1,,5,4,3,2,1,8>3[8:1],,17,,4,5,6,{24}7x/E3,B2,B1,E1,,,3x/E7,B6,B5,E5,,,
{16}2x/6hx[8:1],,3,3h[8:1],,5,5h[8:1],,4,4h[8:1],,6,6h[8:1],,5,,2>4[8:1],,5,5,2,,6,6,1-5[8:1],,7,7,1,,8,8,
{16}B2/E3,,,,E4,,E5,,E6,,,E8,,,,E7,,A4,,,A3,,A2,,A8,,,A7,,A6,,,
{16}B5/E5,,,,B3,,B1,,E8,,,E7,,,,E6,,E5,,,A1,,A2,,A3,,,E5,,E6,,,
{16}B7/E7,,,,E6,,E5,,E4,,,E2,,,,E3,,A5,,,A6,,A7,,A1,,,A2,,A3,,,
{16}7hx[8:1]/6hx[8:1],,,,45,,34,,2hx[16:3]/3hx[16:3],,,,,,,8x,,1x/7x,1x-5[8:1]/7x,,2x/6x,,1x/5x,,{24}E7,B7,B8,{16}2,3,4,5,,7b/4b,
{16},2,1,3,5,4,6,1,8,2,3,1,8,2,4,1<6[8:1],,4,4,1>4[8:1],,5,5,1,,5,6,7,{24}3,4,3,{16}4,2,
{16}6h[8:1],,4,5,3,4h[8:1],,1h[8:1],,7h[8:1],,5,6<4[4:1],4,5,3,{48},D7,A7,D8,A8,D1,A1,D2,A2,D3,A3,D4,{4},5w1[8:1]b,5x,
{16}3b,4,3,2b/5hbx[8:1],,1,1,,7b,8,7,6b/1hbx[8:1],,5,5,,6b,5,6,7b/4hbx[8:1],,8,8<5[8:1],1,7,,{24}1,2,3,{16}4,,3,,
{16}2hb[8:1]/6hb[8:1],,,,78,,18,,12,,{24}4,3,5,{16}4,,6,6,5x,5x,,4x/7x,,8x/3x,,1x/2x,1x<6[8:1]/2x,,8x,,{24}5,4,3,2,,,
{32}C1f/2,3,4,5,6,7,8,1,{8}2b,,7-4[8:1],8,1-5[8:1],8,7-4[8:1],8,2>5[8:1],1h[16:1],8-4[8:1],1,2<3[8:5],1,
{8}6,,6,,8,,8,26,3-7[8:1]/7-3[8:1],,3x/7x,,4-1[8:1]/8-5[8:1],37,4b/8b,,
{16}2h[8:1]/6,,7b,,45,4,7b,,1h[8:1]/5,,8b,8,2,7,1b,,7h[8:1]/4,,2b,,53,5,2b,,6h[8:1]/4,,2b,2,7,1,8b,,
{16}2h[8:1]/5,,7b,,{24}4,5,4,{16}6b,,2h[8:1]/5,,8b,8,1,7,2b,,7h[8:1]/4,,2b,,{24}5,4,5,{16}3b,,{24}8,1,8,{16}2b,6,1-5[8:1]b,7,2b,,
{32}1xpp4[2:1]/5x,E1/E2/B1f,,,{8},,,6,,,,8qq5[2:1],,,,3,,2,,
{8}1pp4[2:1],,,,7,,,,{12}6,5,6,3,4,3,6,4,7,3,8,2,{32}1b,B1,C1,B5,{8},,,,,,,
{1}6h[1:2]/3h[1:2],
