&title=Sakura Fubuki
&artist=Street
&first=0
&des=Rlnneko
&lv_7=宴
&inote_7=(175)
{4},,,,{1}3-5[0##0.01]/5-3[0##0.01],
{2},{8}7-1[0##0.01]/1-7[0##0.01],{4},{8}2h[8:15]/6h[8:15],
{1},,7-5[0##0.01]/5-7[0##0.01],
{2},{8}3-1[0##0.01]/1-3[0##0.01],{4},{8}4h[8:15]/8h[8:15],
{1},,{4}6,
6,6,6,
6/5,6/5,{8}6/5,5/4,{4}4/3,
3,3,{8}3/4,4/5,{4}5/6,
6,6,{8}6/5,5/4,{4}4/3,
2-4[0##0.01]/4-2[0##0.01],3-1[0##0.01]/1-3[0##0.01],8-2[0##0.01]/2-8[0##0.01],7-1[0##0.01]/1-7[0##0.01],
8-6[0##0.01]/6-8[0##0.01],7-5[0##0.01]/5-7[0##0.01],6-4[0##0.01]/4-6[0##0.01],5-3[0##0.01]/3-5[0##0.01],
{16}2,1,2,1,2,1,2,1,3,8,4,7,5,6,5,6,
{32}4,3,2,1,8,7,6,5,4,3,2,1,8,7,6,5,4b/8b,7/3,6/2,5/1,{8},{16}8,4,8,4,
{8}2,2-6[0##0.01]/6-2[0##0.01],,7,{4}7-3[0##0.01]/3-7[0##0.01],{8}1/5,1-5[0##0.01]/5-1[0##0.01],
,6-3[0##0.01]/3-6[0##0.01],{4}7-2[0##0.01]/2-7[0##0.01],{8}4/5,{16}3,6,2,7,{8}1b/8b,
{4},{8},{16}6,5,{8}6,{16}3,4,{4}3,
{16}7,8,7,8,{4}6-1[0##0.01]/1-6[0##0.01],{8}3,3h[4:1],,{16}5,5,
{4}5b/4b,{8}2,{16}6,5,{8}7,{16}3,4,2,1,2,1,
{4}2h[4:1],{16}6,5,6,5,{4}7h[4:1],{8}1,2-5[0##0.01]/5-2[0##0.01],
{4},{16}7,8,7,8,{4}7h[4:1],{8}5,{16}7,8,
{8}6,{16}3,4,{4}2h[4:1],{8}8,7-4[0##0.01]/4-7[0##0.01],,2,
{16}2h[16:1],4h[16:1],3h[16:1],5h[16:1],4h[16:1],6h[16:1],5h[16:1],7h[16:1],3h[16:1],5h[16:1],4h[16:1],6h[16:1],{8}1,1-5[0##0.01]/5-1[0##0.01],
{4},{8},2-8[0##0.01]/8-2[0##0.01],,6-4[0##0.01]/4-6[0##0.01],,1b/8b,
{4},{8},{16}3,4,{8}3,{16}6,5,{4}6,
{16}2,1,2,1,{4}3-8[0##0.01]/8-3[0##0.01],{8}6,6h[4:1],,{16}4,4,
{4}4b/5b,{8}7,{16}3,4,{8}2,{16}6,5,7,8,7,8,
{4}7h[4:1],{16}3,4,3,4,{8}2,1/2,8/3,7-4[0##0.01]/4-7[0##0.01],
{4},{16}2,1,2,1,{4}2h[4:1],{8}4,{16}2,1,
{8}3,{16}6,5,{4}7h[4:1],{8}1,2-5[0##0.01]/5-2[0##0.01],,7,
{16}7,8,6,1,5,2,4,3,6,5,7,4,8,3,{32}1,2,1,2,
{4}3h[2:1]/8h[2:1],{2},{16}3-8[0##0.01]/8-3[0##0.01],7-2[0##0.01]/2-7[0##0.01],1-6[0##0.01]/6-1[0##0.01],5-8[0##0.01]/8-5[0##0.01],
{8}4b,{4},,,{8}1,
{4},,,{8},6,
{4},,,{8},3,
{4},,,{8},{16}7,6,
{8}5-2[0##0.01]/2-5[0##0.01],{4},,,{8}6-3[0##0.01]/3-6[0##0.01],
{4},,,{8},1-4[0##0.01]/4-1[0##0.01],
{4},,,{8},7-3[0##0.01]/3-7[0##0.01],
{4},,,{16}1,2,3,4,
{8}7/5h[2:1],{4},,,{8}2,
4h[2:1],{4},,,{8}5,
3h[2:1],{4},,,{8}8,
2h[2:1],{4},,,{16}2,3,
{4}4/1h[4:1],4,4/1h[4:1],{8}4,7,
8h[8:1],5,8h[8:1],5,8h[8:1],5,8h[8:1],4,
{16}1,5,2,6,3,7,4,8,5,6,2,4,3,7,1,8,
{32}1b,2,3,4,5,6,7,8,1,2,3,4,5,6,7,8,1-5[0##0.01]/5-1[0##0.01],2-6[0##0.01]/6-2[0##0.01],3-7[0##0.01]/7-3[0##0.01],4-8[0##0.01]/8-4[0##0.01],{8},{16}6,4,5,3,
{4}8b,7-2[0##0.01]/2-7[0##0.01],{8},4,4-6[0##0.01]/6-4[0##0.01],7h[4:1],
,{16}1,6,2,5,3,4,1,8,2,7,3,6,{8}4h[4:1],
,5,5-3[0##0.01]/3-5[0##0.01],{16}2,1,{8}2,7,7-1[0##0.01]/1-7[0##0.01],2-6[0##0.01]/6-2[0##0.01],
,{16}3,5,2,6,1,7,4,8,3,7,2,6,1,5,
{4}1,2-7[0##0.01]/7-2[0##0.01],{8},5,5-3[0##0.01]/3-5[0##0.01],2h[4:1],
,8,,6h[4:1],,4,,7-5[0##0.01]/5-7[0##0.01],
,1,,2-4[0##0.01]/4-2[0##0.01],,8,,6-3[0##0.01]/3-6[0##0.01],
,1,2-5[0##0.01]/5-2[0##0.01],8,7-4[0##0.01]/4-7[0##0.01],{16}3,4,2,5,1,6,
{8}8,5/6,3/4,{16}8-2[0##0.01]/2-8[0##0.01],3-7[0##0.01]/7-3[0##0.01],{8}4-6[0##0.01]/6-4[0##0.01],{16}1-7[0##0.01]/7-1[0##0.01],6-2[0##0.01]/2-6[0##0.01],{8}5-3[0##0.01]/3-5[0##0.01],8h[4:1],
,3,6/5,{16}4,7,3,6,2,5,1,8,{8}1h[8:3],
{4},4,{8},2,2-8[0##0.01]/8-2[0##0.01],7-3[0##0.01]/3-7[0##0.01],
,{16}6,4,7,3,8,2,5,1,6,2,7,3,8,4,
{4}8,7-2[0##0.01]/2-7[0##0.01],{8},4,4-6[0##0.01]/6-4[0##0.01],7,
,2-7[0##0.01]/7-2[0##0.01],,3,,3-6[0##0.01]/6-3[0##0.01],7,8/1,
2,2,3/4,3/4,{16}6,5,6,5,8,1,8,1,
{32}8b,7,6,5,4,3,2,1,8b,7,6,5,4,3,2,1,8b/4b,7b/3b,6b/2b,5b/1b,{8},{16}4-8[0##0.01]/8-4[0##0.01],5-1[0##0.01]/1-5[0##0.01],2-6[0##0.01]/6-2[0##0.01],3-7[0##0.01]/7-3[0##0.01],
{8}4-8[0##0.01]/8-4[0##0.01],{4},,,{8}2-5[0##0.01]/5-2[0##0.01],
{4},,,{8},4-7[0##0.01]/7-4[0##0.01],
{4},,,{8},1-6[0##0.01]/6-1[0##0.01],
{4},,,{8},{16}3-8[0##0.01]/8-3[0##0.01],2-7[0##0.01]/7-2[0##0.01],
{8}1-6[0##0.01]/6-1[0##0.01],{4},,,{8}3-5[0##0.01]/5-3[0##0.01],
{4},,,{8},7-1[0##0.01]/1-7[0##0.01],
{4},,,{8},4-6[0##0.01]/6-4[0##0.01],
{1},{16}2-4[0##0.01]/4-2[0##0.01],
1,8,7,6,5,4,3,2,1,8,7,6,5,{8}4-7[0##0.01]/7-4[0##0.01],
{4},,,{8},{16}7-5[0##0.01]/5-7[0##0.01],8,
1,2,3,4,5,6,7,8,1,2,3,4,5,6,7-2[0##0.01]/2-7[0##0.01],3,
4,5,6,7,8,1,2,3,4,5,6,7,8,1,2-5[0##0.01]/5-2[0##0.01],3-6[0##0.01]/6-3[0##0.01],
4-7[0##0.01]/7-4[0##0.01],8,1,2,3,4,5,6,7,8,1,2,3,4,{8}5-2[0##0.01]/2-5[0##0.01],
{2},{8}7h[8:3],{4},{8}1,
{4},,,{8},3/5,
{4},,,{16}1,2-8[0##0.01]/8-2[0##0.01],3-7[0##0.01]/7-3[0##0.01],4-6[0##0.01]/6-4[0##0.01],
{1}5bx,
