&title=星界ちゃんと可不ちゃんのおつかい合騒曲
&artist=南ノ南
&first=0.1
&des=Ohno大力王
&wholebpm=220
&lv_7=挺
&inote_7=(220){1},
{8}4h[8:3]/6h[8:3],,,,4/6,,,3/5,
{8},3h[4:1]/5,,4,4,,3/5,,
{8}3h[8:3]/5h[8:3],,,,3/5,,,4/6,
{8},4/6h[4:1],,5,5,,4/6,,
{8}4h[8:3]/6h[8:3],,,,4/6,,,3/5,
{8},3h[4:1]/5,,4,4,,3/5,,
{8}6,6,4,4,5,5,3,3,
{4}6,4-8[8:1]/5-1[8:1],45,2b/7b,
{4}4^7[8:1],3v8[8:1],4^7[8:1],3v8[8:1],
{4}4^7[8:1],3v8[8:1],4^7[8:1],3v8[8:1],
{4}4^7[8:1],3v8[8:1],4^7[8:1],3v8[8:1],
{4}4^7[8:1],3v8[8:1],4^7[8:1],3v8[8:1],
{4}4^7[8:1],3v8[8:1],4^7[8:1],3v8[8:1],
{4}4^7[8:1],3v8[8:1],4^7[8:1],3v8[8:1],
{4}4^7[8:1],3v8[8:1],4^7[8:1],3v8[8:1],
{8}4^7[8:1],,3,,8-5[8:1]/2-4[8:1],,8x/2x,,
{4}3x>8[4:1],6,7<4[4:1],1,
{8}2,2,4,,1v4[8:1],,5,,
{4}7-5[8:1],1-3[8:1],8-4[8:1],2,
{4}2,1-5[8:1],1b/8b,3b/7b,
{8}6<1[4:1],,4,,2>5[4:1],,6,7,
{4}7h[4:1],5h[4:1],4h[4:1],2h[4:1],
{4}5,3/4,4/7,5/6,
{8}3,3,5,,2/6,,3b/7b,,
{8}4-1[8:1]/8x,8x,4x/8x,8x,4-1[8:1]/8x,8x,4x/8x,8x,
{8}4-1[8:1]/8x,8x,4x/8x,8x,4-1[8:1]/8x,8x,4x/8x,,
{8}4-8[8:1]/7,7,4x/7,7,4-8[8:1]/7,7,4x/7,7,
{8}4-8[8:1]/7,7,4x/7,7,4-8[8:1]/7,7,4x/7,,
{8}4-1[8:1]/6b,6b,4x/6b,,4-8[8:1]/7,7,4x/7,7,
{8}4-8[8:1]/7,7,4x/7,7,4-8[8:1]/7,7,4x/7,7,
{8}4-8[8:1]/7,7,4x/7,7,4-8[8:1]/7,7,4x/7,,
{4}A6f/B7/E7/A7,B2/A2/E3/A3f,B4/B5/E5f/D5,1b/8b,
{4}3h[2:7]/6,8,6,8,
{8}5,,8,,B6/A6/B7/E7f/A7/D7,,,B5/A5/B6/E6f/A6/D6,
{8},,D7/A7/D8/E7/E8/B7f,,D6/A6/D7/E6/E7/B6f,B5/A5/B6/E6f/A6/D6,,,
{4}B7/A7/B8/E8f/A8/D8,B5/A5/B6/E6f/A6/D6,B7/A7/B8/E8f/A8/D8,1b,
{16}5,6,7,8,4,3,2,1,5,6,7,8,4,3,2,1,
{16}5,6,7,8,4,3,2,1,5,6,7,8,4,3,2,1,
{16}6,7,8,1,4,3,2,1,5,6,7,8,3,2,1,8,
{16}5,6,7,8,4p3[2:1],,,,,,,,,,,,
{16}1,,,,2,,,,2h[16:3],,,3h[16:3],,,4,,
{4}4,53,3/5-1[8:1],E4f,
{8}2,2,2,2,18,18,18,18,
{8}61,61,61,61,8^3b[8:1]/7^4b[8:1],,A8/A7/D8f,,
{8}4<7[8:1],4,3v8[8:1],3,4<7[8:1],4,3v8[8:1],3,
{8}4<7[8:1],4,3v8[8:1],3,4<7[8:1],4,3v8[8:1],3,
{8}4<7[8:1],4,3v8[8:1],3,4<7[8:1],4,3v8[8:1],3,
{8}4<7[8:1],4,3v8[8:1],3,4<7[8:1],4,3v8[8:1],3,
{8}4<7[8:1],4,3v8[8:1],3,4<7[8:1],4,3v8[8:1],3,
{8}4<7[8:1],4,3v8[8:1],3,4<7[8:1],4,3v8[8:1],3,
{8}4x,,,,1x/8x,,,,
{4}1x/2x,1x/8x,2x/3x,3x/4x,
{8}4<7[8:1],4,3v8[8:1],3,4<7[8:1],4,3v8[8:1],3,
{8}4<7[8:1],4,3v8[8:1],3,4<7[8:1],4,3v8[8:1],3,
{8}4<7[8:1],4,3v8[8:1],3,4<7[8:1],4,3v8[8:1],3,
{8}4<7[8:1],4,3v8[8:1],3,4<7[8:1],4,3v8[8:1],3,
{8}4<7[8:1],4,3v8[8:1],3,4<7[8:1],4,3v8[8:1],3,
{8}4<7[8:1],4,3v8[8:1],3,4<7[8:1],4,3,,
{4}2x-6[8:1],8v3[8:1]*v5[8:1],,2x/6x,
{4}5-1[8:1]/3-7[8:1],5x/3x,62,1x/7x,
{8}1,8,1,8,1,8,1,8,
{8}1,8,1,8,1,8,1,8,
{8}1,8,1,8,1,8,1,8,
{8}1,8,1,8,2,7,2,7,
{8}1,8,1,8,1,8,1,8,
{8}1,8,1,8,1,8,1,8,
{8}1,8,1,8,1,8,1,8,
{8}1,8,1,8,2,7,2,7,
{8}1,8,1,8,1,8,1,8,
{8}1,8,1,8,1,8,1,8,
{8}1,8,1,8,1,8,1,8,
{1}E7f,
{8}2,7,2,7,2,7,2,7,
{8}2,7,2,7,2,7,2,7,
{1}6pp5[2:1]pp4[2:1]pp3[2:1],
{1},
{8}1,8,1,8,1,8,1,8,
{8}1,8,1,8,1,8,1,8,
{1}6h[2:3],
{2},E5,
{1}6p8b[4:1]-3[4:1]q7[4:1]>2[4:1]qq3[2:1],
{1},
{2}1xh[1:1],8xh[2:1],
{4},3-8[8:1]/6-1[8:1],3b/6b,5b/4b-8[8:1],
{8}4x/7,7,7/3-8[8:1],7,3x/7,7,7/3-8[8:1],7b,
{8}3x/7,7,7/3-8[8:1],7,3x/7b,7,7/3-8b[8:1],7,
{8}3x/7b,7,7/3-8[8:1],7,3x/7,7,7/3-8[8:1],7,
{8}3x/7,7,7/3-8[8:1],7,3x/7b,7,7/3-8[8:1],7,
{8}3x/7,7,7/3-8[8:1],7,3x/7,7,7/3-8[8:1],7,
{8}3x/7,7,7/3-8[8:1],7,3x/7,7,7/3-8[8:1],7,
{8}3x/7b,7,7/3-8[8:1],7,3x/7,7,26,,
{4}1x/8x,1x/8x,B1/E1f/D1/B2/E3/A3/D4/A6/D6/B7/E7/B8,4xh[4:3]/5xh[4:1],
{2},B6/A6/B7/E7/A7/D7,
{16}8b,8b,8b,8b,8b,8b,8b,8b,8b,,,,2b/6b,,,,
{8}4<7[8:1],3v8[8:1],4,3,4<7[8:1],3v8[8:1],4,3,
{8}4<7[8:1],3v8[8:1],4,3,4<7[8:1],3v8[8:1],4,3,
{8}4<7[8:1],3v8[8:1],4,3,4<7[8:1],3v8[8:1],4,3,
{8}4<7[8:1],3v8[8:1],4,3,4<7[8:1],3v8[8:1],4,3,
{8}4<7[8:1],3v8[8:1],4,3,4<7[8:1],3v8[8:1],4,3,
{8}4<7[8:1],3v8[8:1],4,3,4<7[8:1],3v8[8:1],4,3,
{8}4x,,,,1x/8x,,,,
{4}1x/2x,1x/8x,2x/3x,3x/4x,
{8}4x<7[8:1],3v8[8:1],4,3,4<7[8:1],3v8[8:1],4,3,
{8}4<7[8:1],3v8[8:1],4,3,4<7[8:1],3v8[8:1],4,3,
{8}4<7[8:1],3v8[8:1],4,3,4<7[8:1],3v8[8:1],4,3,
{8}4<7[8:1],3v8[8:1],4,3,4<7[8:1],3v8[8:1],4,3,
{8}4<7[8:1],3v8[8:1],4,3,4<7[8:1],3v8[8:1],4,3,
{8}4<7[8:1],3v8[8:1],4,3,4<7[8:1],3v8[8:1],4,3,
{8}4<7[8:1],3v8[8:1],4,3,4,,4-8[8:1]/5-7[8:1],,
{4}4-2[8:1]/5-1[8:1],4-8[8:1]/5-7[8:1],4-2[8:1]/5-1[8:1],4-8[8:1]/5-7[8:1],
{4}4x-2[8:1]/5x-1[8:1],4x-8[8:1]/5x-7[8:1],4x-2[8:1]/5x-1[8:1],4x-8[8:1]/5x-7[8:1],
{4}4bx-2[8:1]/5bx-1[8:1],4bx-8[8:1]/5bx-7[8:1],4bx-2[8:1]/5bx-1[8:1],4bx-8[8:1]/5bx-7[8:1],
{4}4-2[8:1]/5-1[8:1],4-8b[8:1]/5-7b[8:1],4/5,4b/5b,
{8}4<7[8:1],4,3v8[8:1],3,4<7[8:1],4,3v8[8:1],3,
{8}4<7[8:1],4,3v8[8:1],3,4<7[8:1],4,3v8[8:1],3,
{8}4<7[8:1],4,3v8[8:1],3,4<7[8:1],4,3v8[8:1],3,
{8}4<7[8:1],4,3v8[8:1],3,4<7[8:1],4,3v8[8:1],3,
{8}4<7[8:1],4,3v8[8:1],3,4<7[8:1],4,3v8[8:1],3,
{8}4<7[8:1],4,3v8[8:1],3,4<7[8:1],4,3v8[8:1],3,
{8}4<7[8:1],4,3v8[8:1],3,4<7[8:1],4,3v8[8:1],3,
{8}4<7[8:1],4,3v8[8:1],3,4,4,2b,,
{8}4x<7[8:1],3v8[8:1],4,3,4<7[8:1],3v8[8:1],4,3,
{8}4<7[8:1],3v8[8:1],4,3,4<7[8:1],3v8[8:1],4,3,
{8}4<7[8:1],3v8[8:1],4,3,4<7[8:1],3v8[8:1],4,3,
{8}4<7[8:1],3v8[8:1],4,3,4<7[8:1],3v8[8:1],4,3,
{8}4<7[8:1],3v8[8:1],4,3,4<7[8:1],3v8[8:1],4,3,
{8}4<7[8:1],3v8[8:1],4,3,4<7[8:1],3v8[8:1],4,3,
{8}4<7[8:1],3v8[8:1],4,3,4<7[8:1],3v8[8:1],4,3,
{8}4<7[8:1],3v8[8:1],4,3,4,3,2b,,
{1}4<7[2:1],
{1}3v8[2:1],
{1}4<7[2:1],
{1}3v8[2:1],
{2}4<7[4:1],3v8[4:1],
{2}4<7[4:1],3v8[4:1],
{4}4<7[8:1],3v8[8:1],4<7[8:1],3v8[8:1],
{8}4<7[8:1],4,3v8[8:1],3,4<7[8:1],4,2b,,
{1},
{1},
{1},
E
