&title=Kronos
&artist=削除
&first=0.32
&des=Ragna
&lv_5=14
&inote_5=(156){1},{8}
5qq5[3:1]/7h[4:1],,,,7,7,7,{48}5h,4q7[2:1],3h[6:5],,,,{1}
,{48}
7h,6V84[3:1],5h[24:5],,,,{8},,,5,5,5,{48}4h,3qq8[2:1],2h[6:5],,,,{1}
,{48}
8h,7z3[3:1],6h[24:5],,,,{8},,,6,6,6,{48}3h,2>8[2:1],1h[6:5],,,,{1}
,{48}
7h,6,5h,,,,{8}3,6h,2,7h,1,8h,{48}2h/7V58[24:13],3/6h,4h/5V38[2:1],,,,{1}
,
1-5[4:3]/8bz4[2:3],
{8},,,,,,,{16}3,2-6[4:3],{8}
1bs5[2:3],,,,,,,,
,,,7h[4:1],,,7-2[8:1],,
7bz3[2:3]/2-6[4:3],,,,,,,,
,,,2h[4:1],,,2^7[8:1],,
2bz6[8:5]/5h[4:3],,,,,,,5bs1[8:5],
,,,,,,,,
2p3[4:1],,3q2[8:5]*<2[8:5],,,,,,
,,,3<2[8:7],4<3[8:7],5<4[8:7],6<5[8:7],7>6[8:7],
8b>7[8:7]*q7[8:7],,,,,,,,
,,,4h[4:1]/8h[4:1],,,4^1[8:1]/8^5[8:1],,
4bp5[16:13]*>5[16:13]/8,,,,,,,,
,,,4-1[8:3],3,,,8,
7h[8:3],,,3,4,5,6,5,
4,3,4,5-8[8:3],6,,,,
2bz6[2:1],,,,7V51[2:1],,,,
,,4-8[8:1],4,8-4[8:1]*-3[8:1],,,,
5V71[4:1],,1V74[4:1],,4<1[4:1],,2,3,
4-8[8:1],,4/8V24[16:3]*V64[16:3],,,,,2-4[8:1],
4-6[8:1],,,7V53[4:1],5,,,2V48[4:1],
4,,5-1[8:1],,5/1-5[8:1],,1/5V31[16:3]*V71[16:3],,
,,,{16}37,46,5,,,23,,,76,,{32}
2b,1b,,,{8},,6-8[8:1],8-4[8:1]/4-2[8:1],6,4>5[4:1],,
1h[4:1]/4b,,,2-5[8:1],1-6[8:1]/5-1[8:1],2,1<2[4:1],,
5h[4:1]/1b,,,{16}5,6,7-4[8:1],,4-8[8:1],,7,,1,2,
3,4,5,6,7,8,{8}6-2[8:1],3-5[8:1],6,3,{24}1,8,
7,{8}6h[4:1],1,4h[4:1],8,5h[4:1],1,3h[4:1],8,
4b-7[8:1]*-8[8:1],,4,,16,38,4^6[8:1]/5^3[8:1],,
4b/5b,,18,{16}27,36,{8}45,27,18,2b^4[8:1]/7b,
,{16}6,7,8,,8b^5[8:1]/3b,,,,3,2,{8}1,7b/1b-5[8:1],
,8,8,4^1[8:1],1q5[8:1]/5q1[8:1],4,5<4[4:1],,
8h[4:1]/5b,,,8^5[16:3],6^4[8:1]/4^2[8:1],8,4>5[4:1],,
1h[4:1]/4b,,,{16}1,2,3-5[8:1],,5-1[8:1],,3,,8,7,
6,5,4,3,2,1,{8}3-5[8:1],6-8[8:1],3,6,{24}4,3,2,{8}
1h[4:1],{8}4,7h[4:1],5,8h[4:1],4,6h[4:1],5,
7b-2[8:1]*-4[8:1],,7,,1V35[4:1]/5,3-5[8:1]/7,{16}15,6,7,8,{8}
1b-3[8:1]*-7[8:1],,1,,8^5[16:3]/4,6^4[8:1]/2,{16}84,3,2,1,
8b,,{24}5,6,7,8,,,4,,,7,6,5,1,2,3,8,7,6,2,3,4,
1h[4:1],,,,,,8,7,6,5,4,3,2,1,8,{8}7-3[8:1]/5-8[8:1],,7b/5V74[16:9]*q2[16:9],
,,,,,,,,
5V36[10000:8649],,4,3-6[10000:4899],2h[4:1],,,,
4h[4:1],,5,{48}5pp4[16:7],4h,,,,,{8},,,,
3V52[10000:8649],,4,5-2[10000:4899],6h[4:1],,,,
8h[4:1],,1,{48}8z4[16:5],1h,,,,,{8},,,,
2,3,4,5,6^3[4:1],7h[4:1],,,
8,7,6,5,4-8[8:1],3,,1<3[8:3],
1h[4:1],,,2<4[8:3],2h[4:1],,,3>5[8:3],
3h[4:1],,,4-8[8:1],4h[4:1],,,,
1-7[8:1]/7-1[8:1],1V75[16:5]/7V13[16:5],,,,,,,
2-8[8:1]/8-2[8:1],2V84[16:5]/8V26[16:5],,,,,,,
3-5[8:1]/5-3[8:1],5V38[16:5]/3V58[16:5],,,,,,,
2V47[4:1]/7V52[4:1],,2v1[16:3]/7v8[16:3],,,,,7^5[8:1],
5^3[8:1],,,2>6[4:1],4,,,7<1[8:3],
5,,1<5[4:1],,5>1[4:1],,1<5[16:3]*>5[16:3],,
,,,{16}37,28,1,,,76,,,23,,{32}
6b,5b,,,{8},,2-4[8:1],1-6[8:1]/4-1[8:1],2,1V73[16:3],,
1b/5-1[8:1],,5,4V28[4:1],2-8[8:1]/8-6[8:1],4,8V24[32:5],,
8b/5v8[8:1],,5,{16}2-5[8:1],3,7-1[8:1],,2,,7,,4,3,
2,1,4,5,6,7,2-5[8:1],3,1-6[8:1],,2,,1,,{24}4,3,2,{8}
1^4[8:1],5,1^6[8:1],8,1-5[8:1],4,1qq3[16:5],8,
1b,,5,,17,45,2v5[8:1]/6-1[8:1],,
2b/6b,,48,{16}37,26,{8}15,34,75,1b/8b,{16}
27,,3,4,2,,6,5,7,,1,8,3,,{8}4b-8[8:1]/5b,
,7,7,1^3[8:1],3-7[8:1]/7^5[8:1],1,7p2[32:5],,
7b/5-8[8:1],,5,3^8[8:1],8v5[8:1]/5^8[8:1],3,5V38[16:3],,
5b/7v4[8:1],,7,{16}1-4[8:1],2,6-1[8:1],,1,,6,,2,3,
4,5,1,8,7,6,4-8[8:1],3,5-1[8:1],,4,,5,,{24}2,3,4,{8}
5-2[8:1],1,5-1[8:1],8,5v8[8:1],7,5pp2[16:5],6,
5b,,8,,1/5V71[4:1],3/7-1[8:1],{16}15,2,3,4,
5b-7[8:1]*-3[8:1],,,,5,,,,8/4^1[16:3],,6/2^8[8:1],,84,7,6,5,
4b,,{24}1,2,3,4,,,8,,,3,2,1,5,6,7,4,3,2,6,7,8,
5h[4:1],,,,,,4,3,2,1,8,7,6,5,4,{8}1-4[8:1]/3-7[8:1],,1V38[16:9]*q6[16:9]/3b,
,,,,,,,,{16}
18,,7,5,6,,3,4,2,,18,,{24}75,64,53,{16}42,,
18,,2,4,3,,6,5,7,,18,,{24}24,35,46,{16}57,,
18,,27,36,45,,{24}2,1,8,7,6,5,4,63,72,{16}18,,,,
24,,75,,18,,3,4,,6,5,,1,8,1,,
27,,45,,18,,7,5,,2,4,,18,,,,
34,,6,6,5,5,8,8,{24}6,5,4,3,2,1,84,5,6,7,8,1,{16}
24,,6,5,7,,3,4,2,,{24}18,27,36,{16}45,,1b/8b,,
2,4,3,,28,,7,5,6,,17,,{24}2,3,4,7,6,5,{16}
3,4,2,,18,,6,5,7,,18,,{24}2,3,4,7,6,5,{16}
3,4,1,,27,,6,5,8,,27,,{24}4,3,2,5,6,7,{16}
1,8,1,,27,,{24}3,4,5,6,7,8,1,27,36,{16}45,,,,
27,,3,4,,6,5,,2,4,,7,5,,18,,
3,24,,6,75,,18,,{32}1,2,3,4,8,7,6,5,{16}1,,,,
27,,5,5,4,4,7,7,{24}2,3,4,58,7,6,51,2,3,74,6,5,
4h[8:3]/1,,,,,,5,6,7,8,51,62,73,84,15,2-7[8:1]/6-3[8:1],,,,,,2bw6[1:1]/6,,,
{1},,
E
