&title=花の塔
&artist=さユり
&first=0.01
&des=Jitjinsu
&lv_5=14
&inote_5=(170)
{4},,
{8}1b/5b,2bh[16:3]/6bh[16:3],,4b/8b,6bh[16:3]/5bh[16:3],,1b/5b,3bh[16:3]/4bh[16:3],,81,2,{16}4,5,{8}4<2[4:1],7,7h[8:1],,6-4[8:1],4-8[8:1],6,1,1^4[8:1],,5^8[8:1],5,,1,2,{16}6qq1[4:1],5,{8}6,2,2h[8:1],,2-8[8:1],8-4[8:1],2,5,5^8[8:1],,4^1[8:1],4,,8,7,{16}3,4,{8}3qq6[4:1],7,7h[8:1],,8^5[8:1],5^2[8:1],8,1,1p4[8:1],,5p8[8:1],5,,1,2,{16}7qq4[4:1],5,7,,{8}2,2,{16},,8,1,2,3,45,6,7,8,{8}5,47,3h[1:1]/6,5h[8:7],,,,,,,,,
{8}3,4,5-3[8:1],6,,1,2,3-6[8:1],,83,7,7^4[8:1],,4,3,2^5[8:1],1,8,7^2[8:1],6,,3,4-2[8:1],4,,1,1h[4:1],8,8h[4:1],7,7,{16}5,6,5p4[4:1],,{8},1,8,7^2[8:1],,7,3^6[8:1],,1,8qq4[4:1],7,8,,1-6[8:1],5,1,8-3[8:1],4,8^5[8:1],,1,1,3/4q8[8:1]*p8[8:1],,4b,,26,2^5[8:1]/6^1[8:1],,,,2b/6b,,,
{8}8/1qq6[8:3],,2,3,4,5,{16}8,7,8,,{8}2/6V47[16:3],,4,3,{16}2,1,2^5[8:1],,{8}1,8,7p3[8:1],8,1,2-7[8:1],7,6,5v8[8:1],3,2,1v4[8:1],1,{16}4,5,6,7,8b/2b,,2,1,2,1,2,1,3,8,3,8,3,8,4,7,4,7,4,7,5,6,4,5,3,4,2,1,3h[8:1],,7,5,6h[8:1],,,,{8}26,2,37,3,84,4,15,{16}15,8,7,,48,,48,1,2,,4h[16:3],,8h[16:1],,37,26,15,84,7,6,5/8h[4:1],,,,,,
{8}1v6[8:1],6<3[8:1],1,,4-8[8:1],,4/5-7[12:1],,5/1^6[8:1],2,1/3-1[12:1],4,3/8-4[8:1],7,8/5-8[8:1],6,2>6[4:1],2,6<2[4:1],,2>6[4:1],,6,,7-4[8:1],7,8-3[8:1],8,1^6[8:1]*V75[8:1],,1b/2b,,
{8}2>6[4:1],81,6>2[4:1]/2,,2,,6-1[8:1],7,2^5[8:1]/6,3,2/8-4[8:1],7,6-8[12:1]/8,5,6/3^8[4:1],4,8^5[4:1],,5^2[4:1],,1,8,6-1[8:1],5-2[8:1],6,5,{16}7,6,5,4,8,7,6,5,7,5,6,4,5,3,8,2,{8}1^6[8:1],,1/4^1[8:1],,4/6,7V51[4:1],2v4[8:1],,2,,8-6[12:1]*-4[8:1],,8qq3[4:1],,3,2,1h[4:1],3,3h[4:1],5,5h[4:1],6,7,18,2-5[8:1]/7,{16},,8-3[8:1]/2,,{16},,4-8[8:1]/8,,{8},1^4[8:1]/4,,17,7,45,{16},5,6,,35,,7/8^5[8:1],,,,8/2,,2,,45,,,4,3,,46,,12,,1^4[8:1]/8,,7,,6,,5h[8:1],,,4,5,,2-6[8:1],,1,,8h[4:1],,,,5,,47,,3,4,1v4[8:1],,28,,4,5,6,7,{16}18,,1,8,1,,18,,1,7,1,,8,1,8,1,8,,1,8,1,,18,,8,1,8,,1,8,1,2,3,,8,1,8,,18,,8,2,8,,1,8,1,8,1,,8,1,8,,18,,1,,
7h[4:1],,{16}8,1,2,3,{16}45,,5,4,5,,54,,5,3,5,,5,6,5,6,5,,5,4,5,,54,,4,5,4,,4,3,4,3,4,,4,5,4,,45,,5^7[12:1],,4^2[12:1],,5,,4,,8,1,4,3,8h[8:1],,2,1,4,5,
{8}3h[8:1],4,2,1q5[8:1]/5q1[8:1],,1^6[8:1]/5^2[8:1],,,,78,6,4-2[8:1]/5-1[8:1],,5-7[8:1]/4-8[8:1],,4V25[4:1]/5,,1,8,7^2[8:1],,7V51[4:1]/2,,74,,2,3,4-2[8:1]/1-5[8:1],,1^7[12:1]/4^6[12:1],,14,,1/2-6[8:1],12,8h[4:1],,1h[16:3],{16},4,2,,{8}1,68,5,3^8[8:1]/6,4,5,6<1[8:1],5,{16}3,4,5,6,7,8,1/5<2[4:1],,,,{8}3,3h[4:1],
,4V62[4:1],5,6,7h[4:1],,{12}1,1,1,3,3,3,5,5,5,46,,,{8}8/1-5[8:1],2,1,{16}6,7,8-4[8:1]/4,,,,{8}2-6[8:1]/8,3,2/8[8:1],{16}1,8,7,,{8}7-3[8:1],8-4[8:1],7,8<5[8:1],,81,{16}3,2,1/4-8[8:1],,5,,{8}4/6-2[8:1],,6/4,5,4,{16}1,2,83,,16,,{8}47,52,1b/8b,,1-5[8:1],8-6[12:1],1-3[12:1],8-4[8:1],1-6[8:1],8-5[8:1],1-4[8:1],8-3[8:1],1-5[8:1],8-4[8:1],1^4[12:1],8^5[8:1],1,8,1bw5[15.44#86:1],,,,,,,,,,,,,,,,,,,,,,1b,,
{8}12,8h[8:1]/3h[8:1],,34,2h[8:1]/5h[8:1],,18,2h[8:1]/7h[8:1],,2,35,{16}3/5-2[8:1],46,{8}5/7-4[8:1],5,7,,87,1h[8:1]/6h[8:1],,65,7h[8:1]/4h[8:1],,81,7h[8:1]/2h[8:1],,7,64,{16}6/4-7[8:1],53,{8}4/2-5[8:1],4,2,,16,1h[8:1]/6h[8:1],,38,8h[8:1]/3h[8:1],,45,4h[8:1]/5h[8:1],,36,47,{16}1-4[8:1]/8,27,3/6-1[8:1],,{8}1,6,{24},,,4,3,2,1,8,7,63,2,1,8,7,6,{8}15,83,72,1bV35[2:9]*V75[2:9],,,,,,,,,
