&title=Quon
&artist=DJ Noriken
&first=0
&des=Apmayo
&lv_5=14
&inote_5=(170){1},
{2},{16}3,6,4,5,1b,,,,
{8}2hb[8:1]/7hb[8:1],,6h[8:1]/3,,6h[8:1]/4,,6/5,,
6h[8:1]/3,,6h[8:1]/4,,6/5,,6h[8:1]/5,,
2hb[8:1]/7hb[8:1],,3h[8:1]/6,,3h[8:1]/5,,3/7,,
{16}1b-5[8:1],8b,1b,,{8}7-3[8:1],7,2-6[8:1],2,8w4[8:1],,
8b,,6,,6,,6,{16}5h[16:1],,
4b/6b,,,,3,,,,3,,,,3,,4h[16:1],,
3b/5b,,,,A1/D2/A2,,,,6b/4b,,A8/D8/A7,,,,4,,
{8}6-8[8:1],6,3-1[8:1],3,5-8[8:1],,5/1bw5[8:1],,
1b,,3,4,5h[8:1],,,,
3,4,5,6,E2,E4,E6,E8,
3h[8:5],,4,5,6,,,,
3,4,5,6,E2/D2,E4/D4,E6/D6,E8/D8,
B1,B2,B3,B4,B8,B7,B6,B5,
E2,E3,E4,E5,E8,E7,E6,E5,
A1,A2,A3,A4,A8,A7,A6,A5,
1,2,3,4h[8:3],,6,8b,,
3h[8:1]/5,,3h[8:1]/6,,E6/3,,E8/3,,
6h[8:1]/4,,6h[8:1]/3,,E4/6,,E2/6,,
3h[8:1]/5,,3h[8:1]/E8/B7,,6h[8:1]/4,,6h[8:1]/E2/B2,,
7h[8:1]/B3/B4,,1h[8:1]/B5/B6,,3h[8:1]/B7/B8,,5/B1/B2,5,
5h[8:6]/E4,,B3,,B2,,E2,,
4h[8:6]/E6,,B6,,B7,,E8,,
6b/4b,,A1/D2/A2,,3b/5b,A8/D8/A7,,,
{16}1b,8b,1b,,2,,3,,4,,5,,6V82[4:1],,,,
4hb[4:1]/6,,,,,,,,4,,4,5,,5,3V17[4:1],,
5h[4:1],,,,,,,,5,,5,4,,4,6<3[4:1],,
4hb[4:1],,,,,,,,4,,4,5,,5,3>6[4:1],,
5h[4:1],,,,,,,,5,,5,4,,4,5,,
3,4,3,4h[8:1],,1h[8:1],8,,6,5,6,5h[8:1],,8h[8:1],1,,
2,4,3,5,4,6,5,7,5,8,4,7,3,6,2,5,
1b-5[8:1],,,,A7/D7/A6,,,,8-4[8:1],,A2/D3/A3,,,,1,,
{8}6-8[8:1],6,5-1[8:1],5,1>4[8:1]*<6[8:1],,1bw5[8:1]b,,
1b,,{16}2,4,3,5,2,4,3,5,,E2,E8,,
6,4,5,3,7<3[4:1],1,8,,7/3V57[4:1],,,,,,,,
1b,,,,2,4,3,5,2,4,3,5,,E2,E8,,
6,4,5,3,7-4[8:1],1,8,,7/3pp1[4:1],,,,,,,,
8b,,,,7,5,6,4,7,5,6,4,,E8,E2,,
3,5,4,6,2>6[4:1],8,1,,2/6V42[4:1],,,,,,,,
6b,,,,A1/D2/A2,,,,3,,A7/D8/A8,,,,4,,
{8}5-7[8:1],5,4-8[8:1],4,8<5[8:1]*>3[8:1],,8bw4[8:1]b,,
8b,,{16}2,4,3,4,2,5,4,5,,E2/B2,B7/E8,,
6,4,5,3,7<3[4:1],1,8,,7/3pp7[4:1],,,,,,,,
1b,,,,3,4,2,5,4,6,3,7,1b,,,,
7hb[8:1]/A4/D4/A3/E4f/B4/B3,,,,2hb[8:1]/A5/D6/A6/E6f/B5/B6,,,,8-4[8:1],,,1,8bw4[8:1]b,,,,
8b,,,,2,4,3,5,4,6,5,7,4,6,3,5,
2,2,4,3,7,7,5,6,2q5[4:1],,,5,2,,,,
8b-4[8:1],,,,A2/D3/A3,,,,1-5[8:1],,A7/D7/A6,,,,8,,
4,,4,,4-1[8:1]/5,,5,,{48}5-8[8:1]/E4,B3,B2,E2,,,,,,,,,1x/E6,B6,B7,E8,,,,,,,,,
{8}1b,2,3,4,8,7,6,5,
3,2h[8:3],6,7h[8:1],,4x/5x,4x-1[8:1]b/5x-8[8:1]b,,
{64}E6/E4,B6/B3/Cf,B7/B2,E8/E2,,,,,,,,,,,,,{48}1bx-5[8:1]/8bx-4[8:1],2bx/7bx,3bx/6bx,4bx/5bx,,,,,,,,,{8}1/8,,3,2,
1/7-3[8:1],6,7/1,2,1w5[8:1]/8,,,,
1/2-5[8:1],3,2/1,8,7-4[8:1]/8,6,7/8,2,
3/5-1[8:1],6,3-7[8:1]/5,2,3/8w4[8:1],,,,
1b>4[8:1]/7,,6,7,8-4[8:1],4,8,3,
2-6[8:1],6,2,7,8<5[8:1],,3,2,
1-5[8:1],,5,6,7-4[8:1],4,7,3,
2-5[8:1],1,2/7-3[8:1],8,7/1w5[8:1],,A1f,,
3h[8:1]/7b,,3h[8:1]/8,,{16}3x/E6,,,3x,E8,,3x,,
6/2,,6,,6h[8:1]/1,,,,6x/E4,,,6x,E2,,6x,,
{8}3b/B6/B5,3,3h[8:1]/B7/B8,,6/B3/B4,6,6h[8:1]/B2/B1,,
{4}7bx/A4/D4/A3/B4/B3/E4,1bx/A6/D6/A5/B6/B5/E6,3bx/A8/D8/A7/B8/B7/E8,{16}5bx/A2/D2/A1/B2/B1/E2,,6,5,
7b,,7,,8,,8,,1,,1,,2,,3,,
2b/4,,1,,8,,7,,6,,5,,4,,3,8,
2b,1,3,8,4,7,5,6,8b,7,1,6,2,5,3,4,
1b,8b,1b,,7h[8:1],,2h[8:1],,6h[8:1],,3h[8:1],,5h[4:1],,,,
{8}4-8[8:1],,D7/A6/A7,,5-1[8:1],A3/A2/D3,5-7[8:1]b,4-2[8:1]b,
5-1[8:1]b,4-8[8:1]b,5,4,5w1[8:1]b,,5b,,
{16}2bx-4[8:1]/8x,,4-1[8:1]/6,,2/7,,6,,7,8,5,4,8,1,4,3,
7-5[8:1],,5-8[8:1]/3,,7/2,,3,,2,1,4,5,1,8,5,6,
2-5[8:1],,3,,1/2,,8,,7-4[8:1],,6,,7/8,,1,,
2-6[8:1],,3,,2/8-4[8:1],,7,,8/1w5[8:1],,2,,1,,,,
2b-4[8:1],,5-7[8:1]/4,,7/2,,5,,3,8,5,6,4,7,5,6,
3,,2/4,,6,,5/7,,1>8[32:7],8,2,7,1,,,,
A1f/5b,,6,,3b/7b,,2,,2b-5[8:1]b/6b-1[8:1]b,,3b/7b,,2b/6b,,,,
4b/8b,,2/6,,3b-6[8:1]b/7b-2[8:1]b,,1b/5b,,3b/7b,,,,E1f,,,,
2b-4[8:1],,4-1[8:1]/6,,2/7-5[8:1],,5-8[8:1],,7,,2,,3,,4,,
6-4[8:1],,7,,6/1-7[8:1],,2-6[8:1],2,1-5[8:1],,2-4[8:1],,1,,2,,
7-4[8:1],,6,,8/7,,1,,2-5[8:1],,3,,2/1,,8,,
7-3[8:1],,1-5[8:1],,7,,1,,8w4[8:1],,,,,,,,
8b-4[8:1],,5-7[8:1]/4,,8/7,,5,,1-5[8:1],,5/4-2[8:1],,1/2,,4,,
8-4[8:1],,4/3-1[8:1],,8/1,,3,,8-6[8:1],,6/5-1[8:1],,8/1,,5,,
7b,8,6,1,5,2,4,3,1b,2,8,3,7,4,6,5,
7b,,1b/8b,,3b/6b,,1b/8b,,4b-8[8:1]b/5b-1[8:1]b,,,,{48}4b/5b,B5/B4,Cf,B1/B8,,,,,,,,,
{48}1bxw5[4:5]/8bxw4[4:5],2b/7b,3b/6b,4b/5b,,,,,,,,,{4},,,,,
E
