&title=mumei
&artist=Nanashi Mumei(ホロライブEnglish)
&first=0
&des=ななしお
&lv_4=11
&lv_5=13+
&inote_4=(96){4},,,,,,,8bx,1x>8[2:3],,,,,,,,5xh[2:3],,,,4xh[2:1],,,,
{8}3x,3,2,2,1,1,8qq5[2:1],,,,,,,,,,1x,1,2,2,3,3,4qq1[2:1],,,,,,,,,,
8x,8,7,7,6,6,5,5,4>1[8:1],,,,8<5[8:1],,,,
4x,3,12,,8,7,56,,3x>8[4:1]/4x<7[4:1],,,,,,,,
5x/6x,,18,,56,,18,,5x/6x,56,18,18,56,56,18,,
3x/4x,,18,18,34,34,18,18,3x/4x,34,18,,34,34,25,16,
8x>3[4:1]/7x<4[4:1],,,,,,,,2x,2,1,1,8-5[12:1],,,,
B3/E4,E5/B5,E2/B2,B6/E7,E1/B8,,,,B6/E6,E5/B4,E8/B7,B3/E3,E1/B1,,,,
{4}1xh[4:1],2h[4:1],3h[4:1],4h[4:1],5xh[4:1],6h[4:1],7h[4:1],8h[4:1],
1x-5[12:1],8,1-5[12:1],7,1x-5[12:1],6,{8}1,1,,,
{4}8xh[4:1],7h[4:1],6h[4:1],5h[4:1],4xh[4:1],3h[4:1],2h[4:1],1h[4:1],
{8}8x,,,1,1,1,,,,,,1,1,1,,,
78,1,78,6,78,1,23,,34,5,34,2,1-4[12:1]/8-5[12:1],18,,,
56,7,56,4,56,7,18,,{16}3,3,5,5,2,,6,6,4,4,7,,18,,,,
{8}34,12,34,18,34,78,34,,65,87,65,81,65,21,65,,
{16}2,2,4,4,3,3,5,5,4,4,6,6,5,5,7,,7,7,5,5,6,6,4,4,5,5,3,3,4,4,2,,
{2}18,,6hx[2:1],B5,3hx[2:1],B4,7hx[2:1],B8,
{4}1h[8:1]/8h[8:1],2h[8:1]/1h[8:1],3xh[8:1]/2xh[8:1],4h[8:1]/3h[8:1],
5h[8:1]/4h[8:1],6h[8:1]/5h[8:1],7xh[8:1]/6xh[8:1],8h[8:1]/7h[8:1],
1-3[12:1]/8-4[12:1],,8x-6[12:1]/1x-5[12:1],,1-4[12:1]/8-5[12:1],,{8}1x/8x,18,,,
{4}8h[8:1]/1h[8:1],7h[8:1]/8h[8:1],6xh[8:1]/7xh[8:1],5h[8:1]/6h[8:1],
4h[8:1]/5h[8:1],3h[8:1]/4h[8:1],2xh[8:1]/3xh[8:1],1h[8:1]/2h[8:1],
1pp4[2:1]/8qq5[2:1],,,,Ch[1:1],,,,
{8},,8b-5[12:1],8,4-1[12:1],4,8,,7-2[12:1],7,3-6[12:1],3,7-2[12:1],7,3,,
4-1[12:1],4,8-5[12:1],8,4-1[12:1],4,8,,{16}7,7,5,5,6,6,4,4,5,5,3,3,{8}4-8[8:1],,
,,2b-5[12:1],2,6-1[12:1],6,2,,3-8[12:1],3,7-4[12:1],7,3-8[12:1],3,7,,
6-1[12:1],6,2-5[12:1],2,6-1[12:1],6,2,,{16}3,4,3,,12,,78,78,,56,56,,7,8,7,8,
{4}6x<4[2:1],1h[2:1],,,3x>5[2:1],8h[2:1],,,
6x<4[2:1],1h[2:1],,,{16},E2,B2,,E4,,E5,B5,,E1,B8,,E7,,B5,E5,
&inote_5=(96){4},,,,,,,{32}1,8x,,,,,,,
{4}2q6<6q2[2:3],,,,,,,,1<8p2<1[1:1],,,,1-5[4:1]b,,,{16}4x,3x,2x,1x,
{8}7/8xq5[4:1],,5<4[2:1],,8h[4:3],,,,,,,,3,2,18,7,
6/5<1[4:1],,1p4[4:1],,4>5[4:3],,8,,7h[2:1],,,,,,,,
34,2,18,7,56,4,23,1,8<3[4:1],,3>6[4:1],,6,,C,,
3/5-3[16:1],46,57,8,1-7[16:1]/7,28,13,4,3qq8[4:1]/5pp8[4:1],,,,,1,2,3,
4-2[16:1],,45,6,7/3-1[16:1],,34,5,
2-8[16:1]/6,48,2-4[16:1]/6,4,2-8[16:1]/6,8,26,4,
6-8[16:1],,56,4,7-1[16:1]/3,51,7-5[16:1]/3,5,
7-1[16:1]/3,1,7-5[16:1]/3,5,37,1,78,6,
4>5[2:1]/5<4[2:1],,,,,,,,
3-8[8:1],8-5[8:1],5>8[4:1],1,6h[4:1],,,,
{16}2/7p3[12:1],,1,8,2<5[4:1],,1,,2/8h[4:1],,,,,,,,
{16}7/2q6[12:1],,8,1,7>4[4:1],,8,,7/1h[4:1],,,,,,,,
{8}1x-5[12:1],,1/8-4[12:1],,8/7-3[12:1],,7/6-2[12:1],,
6/5x-1[12:1],,5/4-8[12:1],,4/3-7[12:1],2,1-5[12:1]/3,8,
7xpp6[4:1],,6>2[4:1],,2pp1[4:1],,1<5[4:1],,5xpp4[4:1],,4,,3,2,8,1,
8x-4[12:1],,8/1-5[12:1],,1/2-6[12:1],,2/3-7[12:1],,
3/4x-8[12:1],,4/5-1[12:1],6,5/7-3[12:1],8,1-5[12:1]/7,2,{1}3p6[4:5]b,,
{16}7-4[12:1],8,6,5,7,8,1,7,2-5[12:1],1,3,4,2,1,8,,
1-4[12:1],2,8-5[12:1],7,1,,8,,1-4[12:1],4,8-5[12:1],5,,,,,
1-5[12:1],7,3,5,1,,6,4,8-4[12:1],2,6,4,8,,,,
7-4[12:1],4,6,1,7,,2-5[16:1],5-8[16:1],8-4[16:1],4-1[16:1],,,,,,,
8-6[16:1],4,4,4,8-5[12:1],3,3,3,8-4[12:1],2,2,2,8,1,1,,
1-3[16:1],5,5,5,1-4[12:1],6,6,6,1-5[12:1],7,7,7,1,,36,,
8-6[16:1],4,C,4,8-2[16:1],4,C,4,8-6[16:1],4,C,4,8,4,3,2,
1-3[16:1],5,C,5,1-7[16:1],5,C,5,1-3[16:1],5,C,5,1,5,26,37,
{2}4x<4[1:1]/8x,C,4x<3[1:1],C,3x<1[1:1],C,1x>4[2:1],C,
{8}8-4[12:1],8,8/1-5[12:1],1,1/2x-6[12:1],2,2/3-7[12:1],3,
3/4-8[12:1],4,4/5-1[12:1],5,5/6x-2[12:1],7,8-4[12:1]/6,1,
2qq3[4:1],,3<7[4:1],,7xqq8[4:1],,8>4[4:1],,4qq5[4:1],,5,,6,7,1,8,
1-5[12:1],1,1/8-4[12:1],8,8/7x-3[12:1],7,7/6-2[12:1],6,
6/5-1[12:1],5,5/4-8[12:1],3,4/2x-6[12:1],1,8-4[12:1]/2,7,
{16}6,6,6,6,5,5,5,5,4,4,3,3,2,1,8,7,{1}6xq8[4:3]/Ch[1:1],
{8},,2b-5[12:1]/7b,1,2/7p3[12:1],8,{16}1-4[12:1]/7,E1,E8,E7,
1-5[12:1],D2,D3,D4,1-6[12:1],E2,B3,E5,1<4[8:1],B1,C,B5,1,,,,
{8}3-8[12:1],2,7-4[12:1]/3,6,7/2q6[12:1],1,{16}8-5[12:1]/2,E1,E2,E3,
8-4[12:1],D8,D7,D6,8-3[12:1],E8,B6,E5,8,B8,C,B4,Ch[4:1],,,,
{8},,2bq6[12:1]/7b,1,2/7-4[12:1],8,{16}3-6[12:1]/7,E3,E2,E1,
3-7[12:1],D4,D5,D6,3-8[12:1],E4,B5,E7,3>6[8:1],B3,C,B7,3,,,,
{8}5-8[12:1],4,3-6[12:1]/5,2,1-4[12:1]/3,8,7-2[12:1]/1,6,
{16}57,5,3,,4,,2,2,,8,8,,1,2,3,4,
{4}5x-1[12:1],5/8h[2:1],,,2x-6[12:1],2/7h[2:1],,,1x-5[12:1],1/4h[2:1],,,
{16}5-8-6[16:3]*-2-4[16:3],,37,,,,,,,E4,E3,,B1/B5,,E7,E8,E
