&title=Empurple
&artist=はるまきごはん
&first=0.07
&des=Violet
&lv_5=13+
&inote_5=(136)
{1},
{24}3,5,3,5,3,5,
{24}3,5,3,5,3,5,
{16}1h[8:1],,,4h[8:1]/7h[8:1],,,2b/5b<8pp5[8:5],,,,,,,,,,,,,,,,,,
5b/2b<7pp3[8:4],,,,,,,,,,,,,,,,
2,,4,,3h[8:5],,E4,,,,E5,,,,E6,,
7x,,5,,6h[8:5],,E6,,,,E5,,,,E4,,
2x/5x,,3,,2h[8:5],,E4/D4,,,,E5/D5,,,,E6/D6,,
7x/4x,,6,,7h[8:5],,E6/D6,,,,E5/D5,,,,E4/D4,,
2x/5x,,4,,2-8[8:1],,4,,5h[16:1],,,6-4[8:1],,,3,,2h[8:1],,,,2h[8:1]/5h[8:1],,,,52,,3-1[8:1],4,,,4,,
5x,,6,,6-4[8:1],,8,,1h[16:1],,,2-8[8:1],,,7,,6hx[8:1],,,,5hx[8:1]/1h[8:1],,,,7x/3x,,,
{48}A6,E7,E8,
{16}A8,,
{48}A3,E3,E2,
{16}A1,,,
2x,,1h[8:1]/5,,4,4,2>5[8:1],6,,8,2,,7h[8:1],,5,,6,6,2h[8:1],,4,4,
3>1[8:1],,7qq8b[8:2],7,3,,,,,,
3,,8h[8:1]/4,,5,5,7<4[8:1],3,,1,7,,2h[8:1],,4,4,3,3,6,6,5,5,
7<5[16:1],,2xpp1b[8:2],7,,,,,
8,,7,,6h[16:1]/1,,5h[16:1],,2-5[8:1]/6-1[8:1],,,,,,,,
8,,2,,3h[16:1]/8,,4h[16:1],,7V53[8:1]/3V17[8:1],,,,,,,,
1,,7,,6h[16:1]/1,,5h[16:1],,3-8[8:1]/6,,,,7h[8:2],,,,
8,6h[8:1],,1,7h[8:1],,2,8h[8:1],,3,1h[8:1],,4V25v8[16:5],,,,,,,,6,,
7,7h[8:1],,5,6,,7h[8:1],,5,5,7,,6,,7h[8:1]/5,,5,6-4[16:1],,3,,,1h[8:1],,4,,
2h[8:1],,4,,5/3h[8:1],,4,4,2h[8:1],,4,,1h[8:1]/5pp8[8:3],,6,,,,,,,,
3,,2,2,8,8,4,4,6,6,2>5[16:1],,8,2,,7,7,,
4b/8b,,26,2b/6b,,37,3bq5[8:6]/7b,,3/7q1[8:5],,,,,,,,,,,,,,,,
2,2,8,8,1,1,7,7,
{32}2,3,4,5,6,7,8,1,
{16}6>3[8:1]/2b,,,,
1-5[8:1]/6,,8,,15,,6<8[8:1],6,,4,6qq5[16:3],,2b,,,,
3x>8[8:1],,2,,73,,6<1[8:1],6,,2,6V48[16:3],,3b,,,,
2-6[8:1],,3x,,26,,8,8-4[8:1],,7-5[32:3],,8,,7,,,
2xqq7[8:2],,2,,6,,6,,5>6[32:6],,,,2,,,,
1x-5[8:1],,8,,15,,6pp6[16:4],6,,4,6xqq5[16:3],,2b,,,,
3x>8[8:1],,2,,73,,6>3[16:2],6,,2,6pp6[16:4],,1b,,,,
3>8[8:1],,4,,3/6x,,7,7pp8-5[16:4],,8x,,3h[16:3],,,,,
2,2,4,3,7,7,5,6,1pp8<4[8:8],,5x,1xpp8<4b[16:13],,,E5f,,,,,,,,,,,,,,,,,,
C,,,,3,,,,6,,5,,E8,,,,2h[8:2],,B5hf[8:3]/B4h[8:1]/E5h[8:2],,,,,,1>7[8:2],,,,,,,,
8V62[8:2],,,8,,,4,,3h[8:2],,,,E1f,,,,
3,,4,,25,,2,4,3,4,3,,E3,,,,
6,,5,,47,,7,5,6,5,6,,E7,,,,
3,4,,4,2,,2,4,3,4,3,,E2,,,,
6,5,,5,7,,7,5,6,5,6,,E8,,,,
3,5,,5,3,4,4,5,3,4,4,5,E2,,,,
6,4,,4,6,5,5,4,6,5,5,4,E8,,,,
3,5,4,4,3,7,5,5,2,6,4,4,E2,,,,
6,4,5,5,6,2,4,4,7,3,5,5,8<1[8:12],,,,,,,,,,,,,,,,,,,,,,,,,,,,,,,,,,,,
E7,,,,E6,,,B5,,,,,E4,,,4xw8[16:9],,,,,,,,,,,,,,,,,
4,5,3,4,1,8,5,6,3,4,1,8,5,6,1,8,
{16}3h[8:1]/7h[8:1],,,1h[8:1]/5h[8:1],,,37,,
{24}2x,3x,4x,7x,6x,5x,
{32}A2,E3,E4,A4,
{32}A7,E7,E6,A5,
{16}
2>5[8:1],,6,,2qq2[16:4],,8,8,2q6[8:1]*>5[8:1],,6,,D3f,,,,
7<4[8:1],,3,,7pp7[16:4],,1,1,7p3[8:1]*<4[8:1],,3,,D7f,,,,
2-6[8:1],,1x,,26,,8,8<5[8:1],,5-1[32:3]*>2[32:3],,8,,,,,
7xpp2[8:2],,7,,3,,3,,4<3[32:6],,,,8,,,,
6-1[8:1],,2,,63,,4>8[8:1],4,8p4[8:1]*<5[8:1],,7,,D1f,,,,
3-8[8:1],,7,,36,,5<1[8:1],5,1q5[8:1]*>4[8:1],,3,,D1f,,,,
2-6[8:1],,1x,,26,,8,8pp8<5[8:2],,2,,4,,,,,
2,2,4,3,7,7,5,6,1pp8<4[8:8],,5x,1xpp8<4b[16:13],,,E5f,,,,,,,,,,,,,,,,,,
1,,7,,6h[16:1]/2,,5h[16:1],,2-5[8:1]/6-1[8:1],,,,,,,,
8,,2,,3h[16:1]/7,,4h[16:1],,7-4[8:1]/3-8[8:1],,,,,,,,
1,,7,,6h[16:1]/1,,5h[16:1],,2V48[8:2]/6V48[8:2],,,,
