&title=×はんでぃ♡きゃっぱー×
&artist=ぺぽよ、初音ミク
&first=0
&demo_seek=50.75
&lv_5=14
&des_5=迪拉能
&inote_5=
(125){4},{12},,,,,6,6,5,5,
4,4,3/4,3/4,,6,5,6,6/5,5/4,{6}4/3,
{12}7,7,8,8,1,2,2,2b,8,1,1,1,
{24}1,7-5[0.0768##0.0768],,{8}8-4[0##0.2352],{12},8,7,8,7,1,1,8/1,8/1,
6,5,6,7b,8b,1b,2b,7,8,1,2,3,
4,5,6,7,5bx,4bx,5bx,4bx,5bx/4bx,{6},{12}6/5,
5/4,4/3,5/4,B5,E5,B4,{6}B3,{12}B2,B1,B8,B7f,
B7f,B7f,,7,6,5,4,3,2,1,B8/B7/B6/E6,B1/B2/E3/B3/B4/E5,
7x,8x,1x,B8/B7/B6/B5/B4/B3/B2/B1/C,B6/B7/B8/B1/B2/B3/B4/B5/C,B8/B7/B6/B5/B4/B3/B2/B1/C,,6/4,6/4,5/3,5/3,5/4,
5/4,5/3,{6}5/3,{12}8,1,2,3,3,3b,,2,
1,8,7,6,6,A6,A6,5,4,3,{6}4,
,{12}8,8,7,7,1,2,2,3,3x,3b,
2,2,2,1,{6}1,2-7-5-3-8-4-2[0.1584##2.2368],,A7f,
,A3f,{4},{12}B4f,,A2f,,E8,
{6},E7,,{12}E6,2,,{4}4,
{6}5,E2,,B3,,E4/Ch[6:1],
B1/B8/B7/B6/E6/B5,{12}B8/B1/B2/E3/B4/B3/E5,3,6,2,8,5,4,5,4,1,
,7,3,1,2,8,3,3,,1,8,,6,
5,4,3,2,1,{6}B8,B7,B6,
{12}B5,8,1,1,2,2,7,7,6,6,5,4,
5,4,3,3,2,2,1,1,,B1,C,B5,
,7-4[0##0.1584],,8-3[0##0.1584],,7-4[0##0.1584],,1w5[0.1584##0.1584],{4},{12}5bx>5b[12:17]*>6b[4:5]*>7b[12:13]*>8b[8:7]*>1b[24:17]*>2b[24:13]*>3b[8:3]*>4b[24:5],
{3},,,,,Cf,
{6},1bx-4b[4:5]/8bx-5b[4:5],{12},,,,,,,,,,,,,,,,,E6/B5/B4/E4,
,E7,
,C,,{4}E3,{12},B2,,C,,B6,
,7,3,6,2,8,4,1,4,5,8,4,
{6}5,{12}3-6[12:7],3,{3},,{4}7-2[0.1584##1.1184],
{2},{12}5,1,4,
8,2,6,3,7,4,5,8,1,5,,6bx,
,5bx,,4bx,,3bx,,8-6[0.1584##0.1584]/1-5[0.1584##0.1584],{4},{12}8-4[0.1584##0.1584]/1-3[0.1584##0.1584],
{4},{12}Cf,B7,B6,B5,B4,B3,B2,B1,B1,
,B2,,B3,,Ch[3:4]/3x-6[0.1584##1.2768],{3},,{6}7x-2[0.1584##0.9552],
{12},,,,,,,8x,
4x,7x,3x,6x,{6}5x,1x,1x,1x,
{12},8x/1x,,{4}8x/1x,{12}E8,E2,E6,E4,,7x-4[0##0.1584],
,8x-3[0##0.1584],,{4}7x-4[0##0.1584],{12}3,3,4,4,5,5,
6/5,6/5,,3,4,3,3/4,4/5,{6}5/6,{12}2,2,
1,1,8,7,7,7b,1,8,8,8,{24}8,2-4[0.0768##0.0768],,1-5[0##0.2352],
{6},{12}1,2,1,2,8,8,1/8,1/8,3,4,
3,2b,1b,8b,7b,2,1,8,7,6,5,4,
3,2,4bx,5bx,4bx,5bx,{4}4bx/5bx,8bx>8b[3:7]*>7b[12:25]*>6b[4:7]*>5b[2:3]*>4b[6:7]*>3b[6:5]*>2b[12:7]*>1b[4:1],
{1},,{4},{6},{12}8/1,
{4}8/1,{12}8,8,1,
2,1,{6}2,{12}1,2,{24},,,,,B4,B3,B2,B1,B8,B7,B6,
{12}E6,E6f,E6f,E6f,E6f,7-4[0##0.1584],,8-3[0##0.1584],,{4}7-4[0##0.1584],
{1}Cfh[12:61]/8bx>8b[0.1584##2.2368]*>7b[0.1584##1.9152]*>6b[0.1584##1.5984]*>5b[0.1584##1.2768]*>4b[0.1584##0.9552]*>3b[0.1584##0.7968]*>2b[0.1584##0.4752]*>1b[0.1584##0.3168],
{3},1bx<1b[0.1584##2.2368]*<2b[0.1584##1.9152]*<3b[0.1584##1.5984]*<4b[0.1584##1.2768]*<5b[0.1584##0.9552]*<6b[0.1584##0.7968]*<7b[0.1584##0.4752]*<8b[0.1584##0.3168],{1},{3}5bx>5b[0.1584##2.2368]*>6b[0.1584##1.9152]*>7b[0.1584##1.5984]*>8b[0.1584##1.2768]*>1b[0.1584##0.9552]*>2b[0.1584##0.7968]*>3b[0.1584##0.4752]*>4b[0.1584##0.3168],
{1},8bx>7b[0.1584##1.9152]*>6b[0.1584##1.5984]*>5b[0.1584##1.2768]*>4b[0.1584##0.9552]*>3b[0.1584##0.7968]*>2b[0.1584##0.4752]*>1b[0.1584##0.3168],
{3},{6}8bx/1bx,{24}8bx/1bx,{12},{24}7,{12},{8}7,8,
8,1/2,1/2,6,5,4,{4}3b,
{8}E4f,E4f,E4f,B8/B7/B6/C/E7/E6,{4}B1/E2/B2/B3/E4/B4/E5,E1/B8/B7/B6/C/E6/B5,
7h[1:2],{12}C,C,C,,C,C,C,C,C,
,C,C,Cfh[4:3],{4},,,{12}B2/B1/B3/E4,
,C/B8/B4,,B6/E6/E7/B7/B8,,6/5,,6/5,,4/3,
4/3,4/3,,6/5,5/4,4/3,{6},{12}7-2[6:7],7,{3},,{12}A6,
E6,B5,B4,E4,A3,
{6},3/4,3/4,{12}5/6,5/6,{6}5/6,{12}3/4,4/5,
{3}5/6,{12}8,8,{6}6bx,5bx,4bx,
3bx,E2f,E4f,E8f,E6f,6x/5x,
6x/5x,4x/3x,{12}4x/3x,5x/4x,5x/4x,5x/4x,7x/8x,8x/1x,{6}1x/2x,
{12}3x-6[12:13],3x,,,,,,,,D2,E2,B1,
B8,E8,{6}A7,{12},6bx/5bx,,7bx/6bx,,6bx/5bx,,7bx/6bx,
6bx/5bx,6bx/5bx,7bx/6bx,7bx/6bx,6bx/5bx,7bx/6bx,,1bxw5[0.16##0.16],,A6f/D6f/A5f/D5f/A4f,,A6f/D6f/A5f/D5f/A4f,
,E8f,E2f,E6f,E4f,B1f/B8f/B7f/B6f/B5f/B4f/B2f/Cf/B3f,,B1f/B8f/B7f/B6f/B5f/B4f/B3f/Cf/B2f,,B2f/B1f/B8f/B7f/B6f/B5f/B4f/B3f/Cf,5bx>5b[12:29]*>6b[12:25]*>7b[4:7]*>8b[2:3]*>1b[6:7]*>2b[12:11]*>3b[12:7]*>4b[4:1],{4},,,,,,,,,,,{6}8,
8,
1,1,{12}6,5,4,3,{3}2,
6h[6:7]/4h[12:5],,{6}4bx,4bx,
4bx,4bx>4b[12:61]*>5b[2:9]*>6b[6:23]*>7b[6:19]*>8b[12:31]*>1b[12:23]*>2b[4:5]*>2b[4:5]*>2b[4:5]*>3b[12:7],{1},,,,,{4},{60},{45}1x,
8x,7x,6x,5x,4x,3x,2x,1x,8x,7x,6x,5x,4x,3x,2x,1x,8x,
7x,6x,5x,4x,3x,2x,1x,8x,7x,6x,5x,4x,3x,2x,1x,8x,7x,6x,5x,4x,3x,2x,1x,8x,7x,6x,5x,{20},,,{12}6,5,8bxh[6:7]/6bx-3b[1.44##0.8],
{5},,,,,,{45}1bx,
8bx,7bx,6bx,5bx,4bx,3bx,2bx,1bx,8bx,7bx,6bx,5bx,4bx,3bx,2bx,1bx,8bx,7bx,6bx,5bx,4bx,3bx,2bx,1bx,8bx,7bx,6bx,5bx,4bx,3bx,2bx,1bx,8bx,7bx,6bx,
5bx,4bx,3bx,2bx,1bx,8bx,7bx,6bx,5bx,{15},,{12}6,6,{6}6bx,5bx,4bx,
{4}3bx,{12}E2f,,E4f,,E8f,,E6f,7-5[0.16##0.16],8-4[0.16##0.16],
,7-5[0.16##0.16],,7-5[0.16##0.16],8-4[0.16##0.16],,{6}7-5[0.16##0.16],{12}7-5[0.16##0.16],8-4[0.16##0.16],,8-5[0.16##0.16],
,1-4[0.16##0.16],,D4,E4,B4,B5,E6,{6}D6,{12}D2,E2,
B1,B8,E8,A7,{6},{4}8-6[0.16##0.16]/1-5[0.16##0.16],8-4[0.16##0.16]/1-3[0.16##0.16],
8-6[0.16##0.16]/1-5[0.16##0.16],8-4[0.16##0.16]/1-3[0.16##0.16],{6}8-6[0.16##0.16]/1-5[0.16##0.16],C,C,
{12}C,5,4,3,{6}4,B8/B7/B6,B1/C/B5,{12}B2/B3/B4,8x/1x,
{6},8x/1x,{12}8x/1x,E8,E2,E6,E4,B1/B8/B7/B3/B6/B5/B2/B4/C,,B6/B7/B8/B1/B2/B3/B4/B5/C,
,B1/B8/B7/B6/B5/B4/B3/B2/C,{6},5bx/4bx,5bx/4bx,{12},E7,B6,C,
{6}B3,B1/B8/B7/B6/B5/B4/E2/E8/B2/B3/E4/E6/E7/E3/E1/E5,A2/A1/E1/D8/A7/E7/D6/A5/A4/D4/A3/D3/E3/B3/B4/B5/E6/D7/E8/A8/A6/E5/B6/B7/B8/B1/B2/E2/D1/D2/E4/D5/C,A1f/D1f/A8f/D8f/A7f/A6f/D6f/A5f/D5f/A4f/D4f/A3f/A2f/D3f/E1f/E8f/D7f/E6f/B5f/B4f/E4f/B3f/B2f/E2f/B8f/B7f/B6f/Cf/B1f/E7f/E5f/E3f/D2f,{12},7,7,8,
8,1,1,2/1,{6}2/1,{12}7,8,7,7/8,8/1,1/2,
,6,6,5,5,4,3,3,3b,5,4,4,
4,{24}4,6-8[0.0768##0.0768],,5-1[0##0.2352],{6},{12}5,6,5,6,4,4,5/4,
5/4,7,8,7,6b,5b,4b,3b,6,5,4,3,
2,1,8,7,6,8bx,1bx,8bx,1bx,8bx/1bx,{6},{12}7/8,
8/1,1/2,8/1,B8,E1,B1,B2,,B3,B4,B5,
B6f,B6f,{6}B6f,{12}6,7,8,1,2,3,4,B5/B6/B7/E8,
B4/B3/E3/B2/B1/E1,6x,5x,4x,B5/B6/B7/B8/B1/B2/B3/B4/C,B7/B6/B5/B4/B3/B2/B1/B8/C,{6}B5/B6/B7/B8/B1/B2/B3/B4/C,{12}7/1,7/1,8/2,8/2,
8/1,8/1,8/2,8/2,,5,4,3,2,2,{6}2b,
{12}3,4,5,6,7,7,A7,A7,8,1,1bx-5b[0.16##0.16],Cf,
E
