&title=Mirage of Mind
&artist=ハム Vo.F9
&first=0.02
&des=Satella with Dusk
&lv_5=13
&inote_5=(160)
{1},{4}7<5[4:1]/5,,,2>4[4:1],,,8q5[2:1],,,1>4[2:1],,,7>2[2:1],,,3p6[2:1],,,5h[4:3],,4x,C,,{8},3,4,,2h[4:1]/5,,,1,2,,3/8h[4:1],,,7,8,,{4}1h[4:1]/6,5,4v7[4:1],B1/B2,{8},6,5,,4/7h[4:1],,,8,{4}7,1h[4:1]/6,5h[4:1],3h[4:1],4<1[4:3],{2},B2/B3/B4,{4}1/2,4/3v6[4:1],{8},7,7h[4:1],,5>2[4:1],,,6,{4}6h[4:1],1-5[4:1],8,7-2[4:1],4h[4:1],{8},3,4,,2<7[4:1]/5h[4:1],,,6,{4}6p4[2:1],5,4>7[2:1],3h[4:3],,,8-5[4:1],E4,B2,
1>4[2:1],E4,E6,7p3[2:1],A5,A4,2>5[2:1],E4,E6,6q2[2:1],B5,B4,3>8[2:1],4,5,6>3[2:1],7,8,1pp4[1:1]*qq6[1:1],,,,,,2/8<5[2:1],B7,B2,3p7[2:1],A1,A8,6<1[2:1],E8,E2,3q4[2:1],,,5h[4:3],7,6,4h[4:3],3,2,1<3[4:3],,,2h[4:3],,1,{8}8-4[4:3],,,7,,,{4}6>3[2:1],,,
2bqq5[2:1],{8},4,5,6,7qq4[2:1],,5,4,,3,2pp6[2:1],,4,5,,6,7>5[2:1],8,5,4,3,,1pp6[2:1],,,4,5,6,7pp4[2:1],,5,4,,3,2<4[2:1],,2,,,8,7,6,{2}5>2[4:1],{8}7qq4[2:1],,,5,4,3,2qq5[2:1],,4,5,,6,7qq3[2:1],,5,4,,3,2<4[2:1],1,4,5,6,,8qq3[2:1],,,5,4,3,2qq5[2:1],,4,5,,6,{4}7>5[2:1],7,5,3pp5[4:1],{8}4,5,{4}6,8>3[4:1],3<6[4:1],6<1[4:1],1>4[4:1],4,{8},1,{4}1<6[4:1],6>3[4:1],3>8[4:1],8<5[4:1],5,{8},8,{4}3h[8:1]/7h[8:1],2h[8:1]/6h[8:1],1h[8:1]/5h[8:1],4/8-3[4:1],3-6[4:1],6-1[4:1],1>8[1:1],,,B1/B8,,,{2}Ch[4:5],,,
{4}1b>6[2:1]/8b,,7,7qq4[2:1],,,3>7[2:1],B4,B5,6>2[2:1],A7,A8,1<6[4:1]*p4[4:1],,,5h[2:1],4,3,2<4[1:1]/4h[2:1],,,E1,E8,E7,3<6[4:1],{8}7,8,{4}7>2[4:1],2,3,4,5q3[2:1],{8},5,6,5,{4}4p6[2:1],5,4,3h[2:1],2,1,8h[2:1],7,6,
{4}5b,,,6h[2:1]/4,,,4/3h[2:1],,,5h[2:1]/4,,,7h[2:1]/5,,,4h[2:1]/5,,,6h[2:1]/5,4,3,2h[2:7],,8,1>7[1:1],,,,,,C,,,,,,
3bqq8[2:1]/6b,{8},1,8,7,6qq1[2:1],,8,1,,2,3qq7[2:1],,1,8,,7,6,5,{4}4pp8[2:1],1b>4[4:1],,{8},7,6,5,4/6pp1[2:1],,8,1,,2,3pp8[2:1],,1,,,8,7,6,{4}5p3[2:1],4,3b>6[2:1],{8},5,4,3,2pp8[2:1],,8,7,,6,5pp1[2:1],,8,1,,2,3,4,{4}5>2[4:1],2<7[4:1],7b,{8},6,5,4,3pp8[2:1],,1,8,,7,{4}6h[4:1],8h[4:1],5h[4:1],1h[4:1],4>5b[4:1],,
{4}Cf,{8},4,3,4,2pp4pp6[2:1],,5,6,,7,8qq6qq4[2:1],,6,5,,4,3,2,1>6[2:1],5,1,6,7h[2:1],,,8,1,2,3qq1[4:1],,5,6,,7,{4}7qq5[4:1],5,{8},4,3qq1qq7b[2:1],2,{2}1b,{4}8b>4[2:1],{8},4,5,6,7pp1pp3[2:1],,5,4,,3,2pp5[2:1],,4,5,,6,7,8,1,8,2x/7x,3x/6x,4b/5b<1[2:1],,,1,2,3,4qq2qq8[2:1],,1,8,,7,{4}6h[4:1],8h[4:1],5h[4:1],1h[4:1],4,2x/5x,3>8[4:1],8<5[4:1],5>2[4:1],2,,{8},6,{4}6<1[4:1],1>4[4:1],4<7[4:1],7,,{8},3,{4}3-6[4:1],6-3-8[2:1],7,8-3<6[2:1],7,6<2-5[2:1],8b,,,3/6>3-8b[2:1],,,C,E6,E5,E4,,{8},E3,{4}B2,B1,B8,B7,,{8},E7,{4}A6,A5,A4,A3,A2,A1,A8,,,B5/B6/B7,,,,Ch[2:3],
