&title=Dubblethink
&artist=Avans
&first=0
&des=Luner
&lv_5=14
&inote_5=(123)
{1},,,,
,,,,
,,,,
,,,
{24}
6/5h[24:5],,,,,6,
,,,2h[24:9]/1,,,
,,,,,,
,3,4,5,6,7,
8,,6,,,6,
,,,1,8h[24:10],,
,,,,2,,
,,3,,,,
6/5h[24:5],,,,,6,
,,,1h[24:9]/8,,,
,,,,,,
,8,7,6,5,4,
3,,6,,,6,
,,,45,,,
34,,,23,,,
12,,,,,,
6/5h[24:5],,,,,6,
,,,2h[24:9]/1,,,
,,,,,,
,3,4,5,6,7,
8,,6,,,6,
,,,1,8h[24:10],,
,,2h[24:1],,,,
,,3,,,5h[24:6],
6,,,,,6,
,,,1h[24:9]/8,,,
,,,,,,
,8,7,6,5,4,
3,,6,,,6,
,,,21,,,
32,,,43,,,
54,,,,,,
6,,,5h[24:3],,,
6,,4,,,,
63,,,,,2,
6,,,1h[24:9],,,
6,,,,,,
6,,,,,,
6/2pp5[24:11],,3,,,,
6,,,,,,
6,,,,,,
6,,,,,,
6/4qq5[24:11],,5,,,,
6,,,,,,
6,,,,,,
6,,,,,,
6/5-1[8:1],,,,,,
6,,,,,,
6,,,5h[24:3],,,
6,,4,,,,
63,,,,,2,
6,,,1h[24:9],,,
6,,,,,,
6,,,,,,
6/8pp2[12:2],,7,,,,
6,,,,,,
6,,1,1,,2,
6,,3,,,,
6,,,4,,5,
6,,7,5,,4,
2,,,8,1,8,
1-4[12:1],,7-3[12:1],3,,5-1[12:1],
,,,,,,
,,,,,,
34,,3,4,,3,
4,,3,4,,3,
4h[8:1],,,,,,
34,,2,4,,2,
4,,3,4,,2,
4,,3,4,,3,
4^7[8:1],,,,,,
,,,,,,
65,,6,5,,6,
5,,6,5,,6,
5h[8:1],,,,,,
65,,7,5,,7,
5,,6,5,,7,
5,,6,5,,6,
5v3[8:1],,,,,,
,,,,,,
15,,4,3,,4,
3,,4,3,,4,
2h[8:1],,,,,,
15,,4,2,,4,
2,,4,3,,4,
2,,4-7[12:1],3,,4,
3,,4-1[12:1],,,,
,,,,,,
8,,5,6,,5,
6,,5,6,,5,
7h[8:1],,,,,,
84,,5,7,,5,
7,,5,6,,5,
7,,5,6,,5,
6,5,4,3,,,
45,,,,,,
34,,3,4,,2,
3,,2,4,,3,
4h[8:1],,,,,,
43,,2,3,,2,
4,,3,4,,2,
3,,2,4,,3,
4q5[24:5],,,,,,
,,,,,,
6,,6,5,,7,
6,,7,5,,6,
5h[8:1],,,,,,
65,,7,6,,7,
5,,6,5,,7,
6,,7,5,,6,
5-2[12:1],,,7-4[12:1],,,
,,,,,,
1,,4,3,,4,
2,,3,2,,4,
3h[8:1],,,,,,
15,,4,2,,3,
2,,4,3,,4,
2,,3,2-8[12:1],,4,
3,,,5-3[12:1],,,
,,,7,,,
8,,5,6,,5,
7,,6,7,,5,
6h[8:1],,,,,,
84,,5,7,,6,
7,,5,6,,5,
7,,6,7,,5,
6,5,4,3,,,
45,,,,,,
{16}
1h[32:1]/5h[4:7],,,1h[32:1],
,,1h[32:1],,
,1h[32:1],,,
1h[32:1],,,1h[32:1],
,,1h[32:1],,
,1h[32:1],,,
1h[32:1],,,1h[32:1],
,,{32}1,2,3,4,{16}
1h[32:1]/5h[4:7],,,1h[32:1],
,,1h[32:1],,
,1h[32:1],,,
1h[32:1],,,1h[32:1],
,,1h[32:1],,
,1h[32:1],,,
1h[32:1],,,1h[32:1],
,,{32}1,2,3,4,{16}
1h[32:1]/5,,,1h[32:1],
5,,1h[32:1],,
5,1h[32:1],,,
1h[32:1]/5,,,1h[32:1],
5,,1h[32:1],,
5,1h[32:1],,,
1h[32:1]/5,,,1h[32:1],
5,,{32}1,2,3,4,{16}
1h[32:1]/5,,,1h[32:1],
5,,1h[32:1],,
5,1h[32:1],,,
1h[32:1]/5,,,1h[32:1],
5,,1h[32:1],,
5,1h[32:1],,,
1h[32:1]/5,,,1h[32:1],
5,,{32}1,2,3,4,{16}
1h[32:1]/5,,,1h[32:1],
6,,1h[32:1],,
7,1h[32:1],,,
1h[32:1]/8,,,1h[32:1],
2,,1h[32:1],,
3,1h[32:1],,,
1h[32:1]/4,,,1h[32:1],
5,,{32}1,2,3,4,{16}
1h[32:1]/5,,,1h[32:1],
6,,1h[32:1],,
7,1h[32:1],,,
1h[32:1]/8,,,1h[32:1],
2,,1h[32:1],,
3,1h[32:1],,,
1h[32:1]/4,,,1h[32:1],
5,,{32}1,2,3,4,{16}
1h[32:1]/5,,6,1h[32:1],
6,,1h[32:1],,
7,1h[32:1],,,
1h[32:1]/8,,2,1h[32:1],
2,,1h[32:1],,
3,1h[32:1],,,
1h[32:1]/4,,,1h[32:1],
5,,{32}1,2,3,4,{16}
1h[32:1]/5,,6,1h[32:1],
6,,1h[32:1],,
7,1h[32:1],,,
1h[32:1]/8,,2,1h[32:1],
2,,1h[32:1],,
3,1h[32:1],3h[8:1],,
4h[8:1],,5h[8:1],,
6^1[12:1],,,,
{24}
6q2[12:1],,,5,,,
6v3[12:1],,,7,,,
6,,,2,,4,
3^8[12:1],,,4,,,
3p7[12:1],,,4,,,
3v6[12:1],,,2,,,
3,,,7,,5,
1^6[12:1],,,4,,,
1p5[12:1],,,2,,,
1v4[12:1],,,8,,,
1,,,2,,3,
1^4[12:1],,,8,,,
1q5[12:1],,,8,,,
1qq6[12:4],,,2,,,
1,,,,,,
3^8[12:1],,,,,,
3p7[12:1],,,4,,,
3v6[12:1],,,2,,,
3,,,7,,5,
6^1[12:1],,,5,,,
6q2[12:1],,,5,,,
6v3[12:1],,,7,,,
6,,,2,,4,
8^3[12:1],,,5,,,
8q4[12:1],,,7,,,
8v5[12:1],,,1,,,
8,,,7,,6,
8^5[12:1],,,1,,,
8p4[12:1],,,1,,,
8v3[12:1],,,7,,,
2-5[12:1]/8,,,1,,,
6^1[12:1]/2,,,7,,,
6q2[12:1]/4,,,5,,,
6v3[12:1]/8,,,7,,,
61,,,2,,4,
3^8[12:1],,5,4,,,
3p7[12:1]/5,,,4,,,
3v6[12:1]/1,,,2,,,
38,,,7,,5,
1^6[12:1],,,4,,,
1p5[12:1]/3,,,2,,,
1v4[12:1]/7,,,8,,,
13,,,2,,3,
1^4[12:1],,8,2,,,
1q5[12:1]/7,,,8,,,
1qq6[12:4]*^4[12:1]/3,,,2,,,
1,,,,,,
3^8[12:1],,,,,,
3p7[12:1]/5,,,4,,,
3v6[12:1]/1,,,2,,,
38,,,7,,5,
6^1[12:1],,4,5,,,
6q2[12:1]/4,,,5,,,
6v3[12:1]/8,,,7,,,
61,,,2,,4,
8^3[12:1],,,5,,,
8q4[12:1]/6,,,7,,,
8v5[12:1]/2,,,1,,,
86,,,7,,6,
8^5[12:1],,1,7,,,
8^3[12:1]/2,,,1,,,
8q4[12:1]*p4[12:1]/6,,,7,,,
8b,,,
,,,
,,,,,,
34,,2,3,,4,
2,,3,4,,2,
3h[8:1],,,4,,,
34,,4,2,,3,
4,,2,3,,4,
2,,3,4,,2,
3^6[8:1]*q7[8:1],,2h[24:1],,,,
,,,,,,
65,,7,6,,5,
7,,6,5,,7,
6h[8:1],,,5,,,
65,,5,7,,6,
5,,7,6,,5,
7,,6,5,,7,
6v3[8:1]*q2[8:1],,5h[24:1],,,,
,,,,,,
15,,4,3,,2,
4,,3,2,,4,
3h[12:1],,,3,,,
15,,2,4,,3,
2,,4,3,,2,
4,,3,2-8[12:1],,4,
3,,,5-3[12:1],,,
6,,,7,,,
8,,5,6,,7,
5,,6,7,,5,
6h[8:1],,,2,,,
84,,7,5,,6,
7,,5,6,,7,
5,,6,7,,5,
6,5,4,3,,,
4h[8:1]/5h[12:1],,,,,,
,,,,,,
,,,,,,
,,,,,,
,,,,,,
