&title=バケモノダンスフロア
&artist=日向電工
&first=0
&des=NovaSoma
&wholebpm=160
&clock_count=4
&lv_5=13
&inote_5=(160)
{1},
{1},
{8}18,18,1/8h[8:5],,{16}1,,,2,,,3,,
{8},18,1h[8:5]/8,,{16}8,,,7,,,6,,
{8},18,1/8h[8:5],,{16}1,,,3,,,5,,
{8},18,1h[8:5]/8,,{16}8,,,6,,,4,,
{8},18,18,,{16}45,,,35,,,25,,
{8},18,18,,{16}45,,,46,,,47,,
{8},18,18,,{16}18,,,23,,,45,,
{8}36,36,27,27,1s5[8:1]/8,,8b,,
{16}2x/7x,,3,4,3,,12,,78,,6,5,6,,78,,
{8}1^4[8:1],1,7-3[8:1],7,5qq3b[8:1]*pp7b[8:1],,5bx,,
{16}2x/5x,,3,4,3,,18,,47,,6,5,6,,18,,
{8}2-6[8:1],2,7^4[8:1],7,1w5[8:1],,1b,,
{16}72,,6,5,6,,87,,21,,3,4,3,,21,,
{8}8^5[8:1],8,2-6[8:1],2,4-1b[8:1]*-7b[8:1],,4bx,,
{16}7x/4x,,6,5,6,,81,,52,,3,4,3,,81,,
{8}2/6h[8:1],2,3h[8:1]/7,7,4/6h[8:1],4,3h[8:1]/5,5,
{1}4>5[4:6],
{1},
{8}3,3h[8:1],5,,{16}E3,,,E4,,,E5,,
{8},6h[8:1],4,,{16}45,,,45,,,,,
{8}3h[4:1],4,5h[4:1],4,3h[4:1],4,5h[8:1],4,
{8}3^6[8:1],3,8-4[8:1],8,2v5[8:1]*-6[8:1],,2,,
{8}8^5[8:1],,3,2,1^4[8:1],1,5^8[8:1],5,
{8}3,3,24,24,6,6,57,57,
{8}6h[4:1],5,4h[4:1],5,6h[4:1],5,4h[8:1],5,
{8}6^3[8:1],6,1-5[8:1],1,7-4[8:1]*-3[8:1],,7,,
{8}2^5[8:1],2,8^5[8:1],8,2q6[8:1],2,8p4[8:1],8,
{8}1^6[4:1],1,6^3[4:1],6,8-4[8:1],,8b,,
{16}63,,7,8,7,,61,,7h[16:3],,,6h[16:3],,,5,,
{16}43,,2,1,2,,83,,2h[16:3],,,3h[17:3],,,4,,
{16}65,,7,8,7,,61,,7h[16:3],,,6h[16:3],,,5,,
{8}42,3,75,6,1^4[8:1]/5^8[8:1],,15,,
{8}6h[4:1],5,4h[4:1],5,6h[4:1],5,4h[8:1],5,
{8}6^3[8:1],6,1-5[8:1],1,7v4[8:1]*-3[8:1],,7,,
{8}1^4[8:1],,6,7,8^5[8:1],8,4^1[8:1],4,
{8}6,6,75,75,3,3,42,42,
{8}3h[4:1],4,5h[4:1],4,3h[4:1],4,5h[8:1],4,
{8}3^6[8:1],3,8-4[8:1],8,2-5[8:1]*-6[8:1],,2,,
{8}7^4[8:1],7,1^4[8:1],1,7p3[8:1],7,1q5[8:1],1,
{4}8-4[8:1],2-6[8:1]/8,1w5[8:1],1b,
{8}7/8<3[8:3],7/8h[8:5],,,,,C,,
{16}7h[16:3],,,6h[16:3],,,5h[16:2],,4,,,,B5/B6/E5/E6/E7,,,,
{8}2/1>6[8:3],2/1h[8:5],,,,,C,,
{16}2h[16:3],,,3h[16:3],,,4h[16:2],,5,,,,B4/B3/E5/E4/E3,,,,
{8}7/8<3[8:3],7/8h[8:5],,,,,C,,
{16}7h[16:3],,,6h[16:3],,,5h[16:2],,4w8[8:1],,,,4,,,,
{8}2b/4b,2bh[8:1]/4bh[8:1],,,5b/7b,5bh[8:1]/7bh[8:1],,18,
{4}1s5b[8:3]/8,,,8b,
{16}2x/7x,,3,4,3,,12,,78,,6,5,6,,78,,
{8}1^4[8:1],1,7-3[8:1],7,5qq3b[8:1]*pp7b[8:1],,5bx,,
{16}1x/2x,,3,4,3,,18,,78,,6,5,6,,18,,
{8}2-6[8:1],2,7^4[8:1],7,1w5[8:1],,1b,,
{16}27,,6,5,6,,78,,12,,3,4,3,,21,,
{8}8^5[8:1],8,2-6[8:1],2,4-1b[8:1]*-7b[8:1],,4bx,,
{8}3^8[8:1],3,5q2[8:1],5,4p7[8:1],4,6^1[8:1],6,
{8}4>8[8:1],4,5,6,7,18,18,,
{1}1^4[8:5],
{1}8^5[8:5],
{1}7pp4[8:5],
{1}2qq6[8:5],
{8}3,3,3/B6/B7/E7,3,5,5,5/B2/B3/E3,5,
{8}4,4,4/B1/B8/E1,4,6,6,6/B4/B5/E5,6,
{8}78,1,23,4,56,78,12,34,
{8}5<1[8:1],5,4,3,2,1b/8b,1b/8b,,
{16}2x/7x,,3,4,3,,12,,78,,6,5,6,,78,,
{8}1^4[8:1],1,7-3[8:1],7,5qq3b[8:1]*pp7b[8:1],,5bx,,
{16}1x/2x,,3,4,3,,{8}12,3>6[8:1],3,5-8[12:1],5,
{16}4,,6x,5,6,,{8}87,6w2b[8:1],6,6b,,
{16}7x/2x,,6,5,6,,87,,21,,3,4,3,,21,,
{8}8^5[8:1],8,2-6[8:1],2,4-1b[8:1]*-7b[8:1],,4bx,,
{8}6^1[8:1],6,4p7[8:1],4,5q2[8:1],5,3^8[8:1],3,
{8}5<1[8:1],5,4,3,2,1b/8b,1bx/8bx,,
{16}36,,2,1,2,,38,,47,,6,5,,3,4,,
{16}26,,7,8,7,,61,,25,,3,4,,6,5,,
{16}36,,2,1,2,,38,,47,,6,5,,3,4,,
{16}26,,7,8,7,,61,,25,,3,4,,6,5,,
{16}3h[8:1]/5,,4,3,4^7[8:1],,4,,{8}1-5[8:1],1,8,8,
{16}6h[8:1]/4,,5,6,5^2[8:1],,5,,{8}8-4[8:1],8,1,1,
{16}3h[8:1]/5,,4,3,4^7[8:1],,4,,{8}1-5[8:1],1,8,8,
{4}8b^3b[8:1]*^5b[8:1],8bw4b[8:1],8b,
