&title=怪獣になりたい
&artist=Sakuzyo feat. 初音ミク
&first=0.06
&des=?? vs ??
&lv_5=14
&inote_5=(220)
{1},
(110)
{1}4h[8:15]/6h[8:8],,
{1}3hb[2:1]/5hb[2:1],
{1}4hb[2:1]/6hb[2:1],
(220)
{1}5bx<8[2:1],4bx>1b[2:1],
(110){32}18,,,,3,4,3,5,4,6,5,6,3bx,5bx,4bx,6bx,Ch[100:1],,,,,,C,,,,,,,,,,
{16}6b,4,35,,46,,3,5,4,6,35,,46,,3,5,
(110)
{32}7x/4x,,6,5,6,,4,,35,,2,,4,,5,,
{24}7/E5,B4,B3,E1,B8,B7,B2,B3,B4,B6,B7,B8,
(220)
{4}1x^3[8:1]/8xq4[8:1],1p5[8:1]/8^6[8:1],1^3[8:1]/8q4[8:1],1p5[8:1]/8^6[8:1],1^3[8:1]/8q4[8:1],1p5[8:1]/8^6[8:1],1^3[8:1]/8q4[8:1],18,
(110)
{32}2x/5x,,3,4,3,,5,,35,,4,,6,,46,,2,4,3,5,4,6,5,7,3,,35,,7,,27,,
{2}1s5[8:8]/8z4[8:8],,,(220){8},B7,B8,E1,,,,,
(220){2}1xV35[2:1]/7,{4}5V71[2:1],8,{2}1V35[2:1],{4}5V71[2:1],8,{2}1V35[2:1],{4}5,6,,7/2z6[4:1],,,
{2}8xV64[2:1],{4}4V28[2:1],1,{2}8V64[2:1],{4}4V28[2:1],E7h[8:9],
(110),,{16}B7f,B7f,B7f,B7f,B7f,B7f,B7f,B7f,
(220){2}2xV46b[2:1]/B7f,{4}6V82b[2:1],C,{2}2xV46b[2:1],{4}6V82b[2:1],Cf,{2}2xV46b[2:1],{4}6,7,,1s5b[4:1],,,6h[1:1],5,4,3,2h[1:1],1,8,7>5[1:1],{1},{2}Cf,
{4}3,4,5,{16}E7,B6,,,{4}4h[1:1],,,,{8}5,4,6,5,4,3,4h[1:1],5,{2}6,,{8},4,4,5,4/6,,,,3,3,4,4,6,5,4,3,2/5h[2:1],,E3,B3,{2}B4,6h[1:1],,{8},,5,6,
{4}4/8bx<5[2:1],3,2,1,1bx>4b[2:1]/5,6,7,8x,8bx<5[2:1]/4,3,2,1,
(110){16}1,1,1,1h[8:4],{64}A4,D4,A3,D3,A2,D2,,D1,A8,D8,A7,D7,A6,D6,A5,D5,A4,D4,A3,D3,A2,D2,,D1,
A8,D8,A7,D7,A6,D6,A5,D5,A4,D4,A3,D3,A2,D2,,D1,A8,D8,,,,,,,
{32}Ch[4:1]f,,,,,,,,,,,,,,,,,,,,,,,,,,,,,,,,
4b,3,2,1,5,6,7,8,{48}4,3,2,1,8,7,6,5,4,3,2,1,{8}8hb[4:1]/2hxb[4:1],,,,
{32}1,2,3,4,8,1,2,3,8,7,6,5,1,8,7,6,5hb[4:1]/1hb[4:1],,,,,,,,,,,,,,,,
{48}1/5,2,3,4,,,,,,4/8,7,6,5,,,,,,18,,,,,,
{48}2/6,3,4,5,,,,,,3/7,6,5,4,,,,,,35,,,,,,
{32}4,6,4,6,3,7,3,7,2h[64:1],8h[64:1],2h[64:1],8h[64:1],1b,1b,1b,1b,1bx,,,,3b/7b,,,,,,,,1/6,,,,
(220)
{8}2/7,1>2-4<5[8:1],8,7b/1b,,,7,7,8/2,1,2,
8b-5[8:1]/3b,,,1,2,3/4<7[8:1],2,1,8b,,,6,7,1b/8b,2-6[8:1],3,4b/Cf,,,8,8,
{12}1h[12:1],,2xh[12:1],,3xh[12:1],,5xh[12:1],,6xh[12:1],,7xh[12:1],,
{12}1xh[12:1],,2h[12:1]/4h[12:1],,3h[12:1]/5h[12:1],,4h[12:1]/6h[12:1],,5h[12:1]/7h[12:1],,6h[12:1]/8h[12:1],,
{8}1b,1,2,2,3,3,4,4,5/Cf,5,6,6,7,7,8,8,1/8h[16:8],1,1,1,{32}1b,8,7,6,5,4,3,2,1,8,7,6,5,4,3,2,
{32}1,B8,C,B4,,,,,{16},,5h[16:1],,,,,,6h[16:1],,,,
{32}6b/7b,5-3s7>6[8:11]/8-2z6>7[8:11],41,23,{8},,,,,,,,,,,,,
{8}8,2,56,,3,{16}5,4,{8}54,,2,6,{12}3,4,3,7,6,7,{8}5bw1[8:1]b,,,,
{32}A5,D5,A6,D7,E5,B5,E7,B6,A4,B4,A7,B7,E4,B3,E8,B8,{16}A3/E3/A8/E1/D3/A2/A1/D1/E2/D2f/Cf,,
{8},3/2h[8:2],,{24}4,5,6,7,8,1,2,3,4,5,6,7,8/Ch[8:4],,,,,,{8}1-3-7-5[8:5],,,,,,4v7[8:2]*v1[8:2],,,,,,57,48,,24,15,,
{32}6b/5h[8:4],7,8,1,2,3,4,,6,7,8,1,2,3,4,,{16}D7f/A7/A6/E7/B7/B6,,,,{12}1,1,8,{24}1b/8,2,3,4,,,,,,1,8,7,2b,3,4,5x-7-2[8:1]*q2[8:1],,,,,,,,,
{16}3,1,3,1,4,8,4,8,5,7,5,7,{12}6,6x,6x,{8}6-2[8:1],,6bx>6[16:7]*<6[16:7],,,,,,
{16}28,3,4,5,6,7,8,1,2,3,4,5,8,7,6,5,1,2,3,4,5,6,7,8,1,2,3,4,7,6,5,4,{8}3/2h[8:1],,5h[8:2]/4,4,,34,23,12,{16}18,,1,8,2,7,3,6,4b/5b,,,,,,,,
(110){12}8b/1b>6[16:4],8,7,6pp8V24[16:7],,,7h[8:2],,,,,,
{12}4b/5b<2[16:4],4,3,2pp4V68[16:7],,,3h[8:2],,,,,,
{12}12,83,47,4h[8:2]/7-2-5-8[16:7],,,,,,C,,,
{12}56,47,83,1h[8:2]/2-6-1-4[16:7],,,,,,C,,,
{4}8b-4[8:2],,8p4[8:2]*q4[8:2],,8-3-5[8:2]*-5-3[8:2],,Ch[8:3],,
(220)
{24}3x,4x,3x,4x,3x,4x,2x,5x,2x,5x,1x,6x,1x,6x,8x,7x,8x,7x,{16}8x,7x,8x,7x,A1/E1/B1f/E2,,,,,,,,,,,,,,,,
{24}6x,5x,6x,5x,6x,5x,7x,4x,7x,4x,8x,3x,8x,3x,1x,2x,1x,2x,{16}1x,2x,1x,2x,A8/E1/B8f/E8,,,,,,,,,,,,1,,1,,
{24}15,26,37,4h[8:1]/8h[8:1],,,,,,37,26,15,8h[8:1]/4h[8:1],,,,,,2b/6b,,,,,,
{8}1,18,27,36,45,4h[8:2]/5h[8:2],,,
{16}18,,,,2,8,4,6,1,7,4,5,2bx,6bx,3bx,7bx,Ch[100:1],,,,,,C,,,,,,,,,,
