&title=くうになる
&artist=MIMI feat. 初音ミク & 可不
&first=0
&des=Dororo
&wholebpm=166
&lv_5=13
&inote_5=(166)
{16}
,,,,,,,,6,,5,,4,,3,,
7h[2:1],,,,,,3,,3h[2:1],,,,,,6,,
6h[2:1],,,,,,2,,2h[2:1],,,,,,7,,
7h[2:1],,,,,,3,,3h[2:1],,,,,,8,,
8h[4:1],,,,2-6[4:1],,1,,2,,,,,,,,
7^2[4:1],,,,,,4,,4h[4:1],,,,,,7,,
7^2[4:1],,,,,,5,,5h[4:1],,,,,,7,,
7^2[4:1],,,,,,4,,4h[4:1],,,,,,7,,
7^2[4:1],,,,2^5[4:1],,,,5^8[4:1],,,,,,,,
2^7[4:1],,,,,,5,,5h[4:1],,,,,,2,,
2^7[4:1],,,,,,4,,4h[4:1],,,,,,2,,
2^7[4:1],,,,,,5,,5h[4:1],,,,,,2,,
2^7[4:1],,,,,,6,,6^3[4:1],,,,,,,,
1-5[4:1],,,,8,,8,,1-5[4:1],,,,3,,3,,
1-5[4:1],,,,7,,7,,1-5[4:1],,,,2,,2,,
1-5[4:1],,,,8,,8,,1-5[4:1],,,,3,,3,,
1-5[4:1],,,,5-2[4:1],,,,2-6[4:1],,,,,,,,
8-4[4:1],,,,1,,1,,8-4[4:1],,,,6,,6,,
8-4[4:1],,,,2,,2,,8-4[4:1],,,,7,,7,,
8-4[4:1],,,,1,,1,,8-4[4:1],,,,6,,6,,
8-4[4:1],,,,4-8[4:1],,,,2h[4:1],,,,,,,,
2-5[8:1],,,,2h[256:1],,1,,1-5[8:1],,3h[256:1],,3h[256:1],,,,
2^5[8:1],,,,2h[256:1],,1,,1-5[8:1],,3h[256:1],,3h[256:1],,,,
2-5[8:1],,,,2h[256:1],,1,,1-5[8:1],,3h[256:1],,3h[256:1],,,,
2^5[8:1],,,,2h[256:1],,8-5[8:1],,8-3[8:1],,,,,,,,
7-4[8:1],,,,7h[256:1],,8,,8-4[8:1],,6h[256:1],,6h[256:1],,,,
7^4[8:1],,,,7h[256:1],,8,,8-4[8:1],,6h[256:1],,6h[256:1],,,,
7-4[8:1],,,,7h[256:1],,8,,8-4[8:1],,6h[256:1],,6h[256:1],,,,
7^4[8:1],,,,2^7[8:1],,,,5^2[8:1],,,,,,,,
8-4[8:1],,,,,,2-5[8:1],,2h[4:1],,,,,,,,
8-4[8:1],,,,,,2^5[8:1],,1h[4:1],,,,,,,,
1-5[8:1],,,,,,7-4[8:1],,7h[4:1],,,,,,,,
1-5[8:1],,,,,,7^4[8:1],,8h[4:1],,,,,,,,
2-5[8:1],,,,3,,,,6-1[8:1],,,,7,,,,
3-8[8:1],,,,1,,,,7-4[8:1],,,,5,,,,
2^5[4:1],,,,5^8[4:1],,,,8^3[4:1],,,,3^6[4:1],,,,
6,,7,,8,,1,,3,4,3,4,3,4,3,4,
2-6[8:1],,,,12,,8,,7^4[8:1],,,,74,,3,,
2,,2,1,2^7[8:1],,2,,2h[4:1],,,,6,,6,,
56,,1,8,1,,7,,8-3[8:1],,5,,5,,5,,
6-1[8:1],,2-6[8:1],,6^3[8:1],,2,,,,,,25,,,,
7-3[8:1],,,,87,,1,,2^5[8:1],,,,25,,6,,
7,,7,8,7-4[8:1],6,7,8,7,,,,3,,3,,
43,,8,1,8,,2,,1-6[8:1],,4,,4,,4,,
3-8[8:1],,7-3[8:1],,3^6[8:1],,7,,,,,,47,,,,
8^5[8:1],,,1,8,,1,,8^5[8:1],,,2,8,,2,,
8^5[8:1],,,3,8,,3,,8^5[8:1],,,4,8,,4,,
8^5[8:1],,,3,8,,3,,8^5[8:1],,,2,8,,2,,
8^5[8:1],,,1,8,,1,,8-4[8:1],,,,,,,,
1^4[8:1],,,8,1,,8,,1^4[8:1],,,7,1,,7,,
1^4[8:1],,,6,1,,6,,1^4[8:1],,,5,1,,5,,
1^4[8:1],,,6,1,,6,,1^4[8:1],,,7,1,,7,,
8-5[8:1],,8,,8-3[8:1],,,,8,,,,,,,,
2-6[8:1],,,,2h[256:1],,8,,1^6[8:1],,3h[256:1],,5h[256:1],,,,
2-6[8:1],,,,2h[256:1],,8,,1-6[8:1],,3h[256:1],,5h[256:1],,,,
2-6[8:1],,,,2h[256:1],,8,,1^6[8:1],,3h[256:1],,5h[256:1],,,,
2-6[8:1],,,,2h[256:1],,8^5[8:1],,8^3[8:1],,,,,,,,
7-3[8:1],,,,7h[256:1],,1,,8^3[8:1],,6h[256:1],,4h[256:1],,,,
7-3[8:1],,,,7h[256:1],,1,,8-3[8:1],,6h[256:1],,4h[256:1],,,,
7-3[8:1],,,,7h[256:1],,1,,8^3[8:1],,6h[256:1],,4h[256:1],,,,
7-3[8:1],,,,4-7[8:1],,,,8-4[8:1],,,,,,,,
1-5[8:1],,,,,,7-4[8:1],,7^2[8:1],,,,,,,,
1-5[8:1],,,,,,7^4[8:1],,7-3[8:1],,,,,,,,
8-4[8:1],,,,,,2-5[8:1],,2^7[8:1],,,,,,,,
8-4[8:1],,,,,,2^5[8:1],,2-6[8:1],,,,,,,,
7-4[8:1],,,,67,,,,3-8[8:1],,2,,23,,,,
6-1[8:1],,,,86,,,,2-5[8:1],,4,,42,,,,
7^4[4:1],,,,4^1[4:1],,,,1^6[4:1],,,,6^3[4:1],,,,
3,,2,,1,,8,,6,5,6,5,6,5,6,5,
7-3[8:1],,7,,8^5[8:1],,1,,2h[4:1],,,,3,,4,,
5-1[8:1],,5,,6^3[8:1],,7,,8h[4:1],,,,2,,1,,
8-3[8:1],,,,6,,7,,8-5[8:1],,,,3,,2,,
1-5[8:1],,1,,7-4[8:1],,7,,8,,,,2,,1,,
2-6[8:1],,2,,1^4[8:1],,8,,7h[4:1],,,,6,,5,,
4-8[8:1],,4,,3^6[8:1],,2,,1h[4:1],,,,7,,8,,
1^6[8:1],,2,,3,,4,,5^2[8:1],,6,,7,,8,,
1^6[8:1],,1,,1^4[8:1],,,,1-5[8:1]/7-4[8:1],,,,1b/7b,,,,
2,,6,5,6,,3,,8h[8:3],,7,,7,,7,,
16,,5,4,5,,3,,3-6[8:1],,,,7,,7,,
1,,6,5,6,,2,,7h[8:3],,8,,1,,2,,
3-8[8:1],,3,,7-4[8:1],,7,,1,,,,2,,2,,
7,,3,4,3,,6,,2,,7,8,7,,1,,
83,,4,5,4,5,4,5,4-1[8:1],,,,6,,6,,
8-4[8:1],,8,,7,,6,,5-1[8:1],,5,,4,,3,,
2h[4:3],,,,,,3,,3h[4:1],,,,,,,,
1-5[8:1]/8-4[8:1],,,,1b/8b,,,,7h[4:1],,,,6,,5,,
4-8[8:1],,4,,3^6[8:1],,2,,1h[4:1],,,,7,,8,,
1-6[8:1],,,,3,,2,,1-4[8:1],,,,6,,7,,
8-4[8:1],,8,,2-5[8:1],,2,,1,,,,7,,8,,
7-3[8:1],,7,,8^5[8:1],,1,,2h[4:1],,,,3,,4,,
5-1[8:1],,5,,6^3[8:1],,7,,8h[4:1],,,,2,,1,,
8^3[8:1],,7,,6,,5,,4^7[8:1],,3,,2,,1,,
8^3[8:1],,8,,8^5[8:1],,,,8-4[8:1]/2-5[8:1],,,,8b/2b,,,,
6-2[8:1],,6,,5^8[8:1],,4,,3h[4:1]/5,,,,2,,1,,
8-4[8:1],,8,,7^2[8:1],,6,,5h[4:1]/7,,,,3,,4,,
5^2[8:1],,,,75,,6,,5^8[8:1],,,,35,,4,,
5-2[8:1],,2-6[8:1],,6-2[8:1],,8,,8,,,,3,,4,,
3-7[8:1],,3,,4^1[8:1],,5,,6h[4:1]/4,,,,7,,8,,
1-5[8:1],,1,,2^7[8:1],,3,,4h[4:1]/2,,,,6,,5,,
4-7[8:1],,3,,2,,1,,8-3[8:1],,7,,6,,5,,
4^7[8:1],,8^3[8:1],,4-8[8:1],,8,,4,,,,2^7[8:1]/6^3[1:1],,,,
2b,,,,8,,8,,8,,,,1,,1,,
1,,2,3,2,3,2,3,2,,,,5,,4,,
3,,7,8,7,,2,,1-5[8:1],,3-7[8:1],,1,,3,,
6,,5,,4,,3,,4-1[8:1]/5-8[8:1],,,,,,,,
,,,,,,,,,,,,,,,,
E
