&title=Sparkling Daydream
&artist=ZAQ「中二病でも恋がしたい!」
&first=-0.41
&des=Traxeri
&demo_seek=58.37
&demo_len=27
&lv_5=13
&inote_5=(175)
{2},,{8}D4,D5,D6,E4,E5,E6,D2,D1,D8,B3,B6,C,{16}E3,E4,E5,E6,E7,E8,E1/D1f,,,,,,{8}2-8[8:1],,7,7q4[8:1],,3,3>8[8:1],,4x,,7,7,86,,3,4<8[8:1],2,4,,1,1,,7h[4:1],6,6,,3,5-1[8:1],4,5b,,2,12,,7,7,6/2>5[8:1],,8p3[8:1],,2q6[8:1]b,,5,,7,7bx/1bxh[8:3],,4,4,{16},,3,,3,,5/2v7[8:1],,,,6>3[8:1],,,,2,,,,{8}5b/1b,5b/1b,,,2qq3[2:1],,4,,4,,4,,5pp4[2:1],,3,,3,,2,2>5[4:1],,5<8[4:1],,8>3[4:1],,3<5p8[8:3],,7,,6,6h[4:1],,1,7,8,1,2xqq5[4:2]/4x,,5x,,6,,7,,8xz4[4:2]b,,4,,3,,2,,5bxpp5<5[4:3]*qq5>5[4:3]b/1bx,,,,,,,,,,51,,17,{16}6,5,6,,45,,{8}4>1[8:1],,5b/4b,,8v3[8:1],,4,,2>5[8:1],,1,,8,1,2,3,4<6[8:1],,7,,8p4[8:1],,2,,1-7[8:1],,5,,6,7,82,3,4v2[8:1],,1,,8<5[8:1],,1,,3-1[8:1],,4,,2x>5[8:1],,8,,6x/2x,,8,8<5[8:1],,8>3[8:1],,8,,62,6bx/2bx,,4w8[8:1],,,,3xh[4:1],1,1,,2x>5[8:1],8,8,,7xh[4:1],1,1,,8x<5[8:1],2,2,3,3h[4:1],,1h[4:1],,7h[4:1],,5,5,4qq1[4:2]b,,8,,7,,6,,3/5h[4:1],,2,2,6,5,47,,8h[4:1]/6,,5,5,3,4,25,,7h[4:1]/8,,5,5,1,2,83,7,4h[4:3]/6,,{16}D6,D5,D4,D3,D2,D1,D8,D7,D6,,,,8bx/2bx,,,,3,,3,,{8}4h[4:1],,5,,8-6[8:1],,5,,8v5[8:1],,4,,3<6[4:1],,6v3[4:1],,,,7,,1-3[8:1],,4,,1v4[8:1]b,,5,,{4}1x/7x,71,57,75,65,45,2-4[8:1]*>4[8:1]b/4,,{8}8b/2b,8,4,4,6,6,3,3,{16}A6,A5,A4,A3,A2,A1,A8,A7,A6f,,,,{4}1x>5[4:1]b/7bx,5<1[4:1],1>5[4:1],5<1[4:1],1V35[4:1],5bxV71[4:1],1bxV35[4:1],5bx,1bx,7-4[8:1]/3-8[8:1],,2>5[8:1]b/6<1[8:1]b,2bx/6bx,{8}37,2,1,8,{16}7b/6b,,,2b/3b,,,{8}7bpp5[8:3]/4bh[8:3],,,,3,,2,2,,82,3>8[8:1],4,3/7-3[8:1],,7/2>5[8:1]b,,2b/8b,,7,4,5,5/3h[4:1],,6,4,7<4[8:1],8-4[8:1],7,8,,1x,1x-5[8:1],,1b/2b-4[8:1],,2/1-5[8:1],,1/2-4[8:1],,2/1-7[8:1]b,,1bx/2bx-6[8:1],,2bx/1bx-7[8:1]b,,1bx/2bx-6[8:1],,1b/2b,,8qq6[8:1]/4-1>2[8:1],,,,3x>8[8:1]b/7<4[8:1]b,,3b/7b,,2,6qq4<7[4:1],3,6,,1,1h[4:1],,8-4[8:1]*-3[8:1],,8bx,,5v2[8:1]*-1[8:1],,5bx,,8-4[8:1]*V64[8:1],,8bx,,3w7[8:1]b,,3bx,,1v4[8:1]/5v8[8:1],,1bx/5bx,,4v1[8:1]/8<5[8:1],,8bx/4bx,,2pp4[8:1]b/6pp8[8:1]b,,6b/2b,,1bxw5[8:1]b,,1b`Cf,,3xh[8:1]/7xh[8:1],,3h[8:1]/4h[8:1],,5h[8:1]/4h[8:1],,6h[8:1]/5h[8:1],,6xh[8:1]/8x-4[8:1],,7,,6pp4[4:4],2qq4[8:7]b,6b,2b,,,,,,,,,7h[4:1],6,5,,3bxh[4:1],D4,D5,,7bx/1bx,6,4,5bx/2bx,3,4,8bx/2bx,7,5,6bx/1bx,5,4,56,57,48,1bqq5[8:5]b/3bh[8:7],
