&title=魔女と精霊の詩
&artist=Fty
&first=0
&des=ありとあらゆるありふれた魔女の物語 Vocal: 可不, 東北きりたん
&lv_5=13+
&inote_5=(76){12},,,
{24}6h[24:4],,,4,,,
5h[24:4],,,3,,,
6h[24:4],,,4,,,
{72}6h[384:1]/2pp4[24:4],5pp1[24:8]*pp1[24:8],4h[384:1],,,,
,,,,,,
,,,,,,
,,,,,,
,,,,,,
,,,,,,
{24}3^5[8:1],,,2,,,
7^5[8:1],,,8,,,
2^4[8:1],,,1,,,
6^4[8:1],,,7,,,
6p5[8:2]/2h[24:8],,,,,,
,,,,,,
1v3[8:1],,2,,3,,
5,,6,,7,,
4/8,,7,5,6,,
5/4,,3,4,2,,
5/1,,2,4,3,,
4/5,,6,5,7,,
8q7[24:4]/4^1[24:4],,,,,,
,,,,,,
{24}6-4[8:1]/3h[24:4],,,,,,
6^1[8:1]/2h[24:4],,,,,,
6/3h[24:6],,,,,,
8-4[8:1],,7,,6,,
8^3[8:1]/5h[24:4],,,,,,
8V62[16:3]/6h[24:4],,,,,,
8/7h[24:4],,,,,,
8/1p5[8:1],,2,,3,,
1q5[8:1]/4,,,,2,,
1p4[8:1]/6,,,,8,,
1/3^6[8:1],,,,2,,
1v6[8:1],,2,,3,,
1/4^7[8:1],,,,2,,
1p4[8:1]/4,,,,2,,
1/3<7[8:1],,,,2,,
1q6[8:1],,2,,,,
{24}1/7h[24:2],,,7h[24:2],,,
1/6,,2/5,,
3-8[16:1]/4h[24:2],,,4h[24:2],,,
3/5,,6,,
7-5[16:1]/1h[24:2],,,2h[24:2],,,
7/3,,4,,
6h[24:2]/5^3[16:1],,,7h[24:2],,,
{72}5/8h[384:1],7h[384:1],6h[384:1],,,,
,,,,,,
{24}1h[24:2]/5,,,2h[24:2]/6,,7,
8h[24:2]/3,,4,,
5/7h[24:2],,,4/6h[24:2],,2,
1h[24:2]/5,,4,,
{24}2/4,,3/5,,4/6,,
2/5,,3/6,,4/7,,
8/5,7,6,5,4,3,
2^5[12:1]/6b,,,,8,,
{24}2b/6h[24:2],,,,7/8,,
5h[24:2]/2h[24:2],,,,7/8,,
5q2[8:1]/2h[24:2],,4,3,6,,
7h[24:1],,6h[24:1],,5h[24:1],,
1qq6[16:3]/4,,2/6,,3/8,,
4h[24:1],,3h[24:1],,2h[24:1],,
5^2[8:1],1,6,3,7,4,
8,,8,,6,,
5,1,6,2,7,3,
8-4[12:1],4,8,3v1[12:1],8,2,
8qq5[16:3],,,3,,,
8,,2,,3,,
4,,6,5,7,4,
8h[24:2]/3,,4,7,3,6,
5^7[16:1]/2^4[16:1],,1/4,,1/4,,
2/5v8[12:1]*q1[12:1],,,,7/3,,
{24}5b,,,,3/8,,
5h[24:2]/6h[24:2],,,,3/1,,
8^3[8:1]/3h[24:4],7,6,5,4,,
4,5,6,7,8,,
7h[24:4]/5,,3,,1,,
2h[24:2]/6,,5,,1/4,,
2,5,3,6,4,7,
5h[24:2],,8,,3/7,,
2^4[16:1]/6,,4/5^8[16:1],,1/8p4[16:1],,
2,,5,,3,,
2b,,5,6,7h[24:2]/4,,
3^8[8:1],,6,7,8/4,,
3/7h[24:4],,,,,,
8qq8[8:1]/1,,2,,3,,
4v1[8:1],,,,3,,
8v3[8:1],,,,6,,
5p8[8:1]*q2[8:1],,,,,,
,,,,,,
1h[24:6]/7,,,,,,
8-4[12:1],,1-5[12:1],1,1,,
{24}8^6[12:1],,1^3[12:1],,,,
8v5[12:1],,1v4[12:1],,,,
8pp1[12:1],,1<4[8:1],,,,
8,,3,,2,,
1-3[12:1],,5-7[12:1],,,,
1^7[12:1],,5^3[12:1],,,,
1-5[12:1],,5qq3[12:1],,,,
1,,7,,7,,
8-6[12:1],,4,,3,,
8-5[12:1],,3,,2,,
8v3[12:1],,2,,1,,
8/7,,6,,5,,
4h[24:3]/3,,,2,1,,
4h[24:3]/5,,,6,7,,
{24}8<4[24:6]/5qq1[24:12],,,,,,
,,,,,,
,,,,,,
{72},,,,,,
,,,,,,
,,,,7h[384:1],6h[384:1],
{24}5h[24:4]/3h[24:6],,,,,,
8h[24:4],,,,5h[24:2],,
7h[24:4],,,,4,,
6h[24:4]/3,,2,,1,,
5/8,,1,5,1,5,
1h[24:2],,4,1,4,1,
4h[24:2],,1,5,2,6,
3h[24:2],,7,4,8,5,
1h[24:2],,,,8/4,,
6h[24:2]/2h[24:2],,,,7/3,,
5h[24:2]/1h[24:2],,,,3/7,,
6h[24:4]/2^4[16:1],,1,,8,,
{24}2b/5,,,6,1-6[12:1],,
7/2,,8/3,,
1/4,,,2,5-1[12:1],,
3/8,,4/7,,
5/6,,,5,8-4[12:1],,
1/6,,2/7,,
8/3,,,2,4v1[12:1],,
{72}3/5h[384:1],6h[384:1],7h[384:1],,,,
,,,,,,
{24}6/4b,,,5,8-3[12:1],,
6/2,,7/3,,
8/4,,,2,5-1[12:1],,
8/3,,7/4,,
6^3[12:1]/5,,6,,6,,
8>5[8:1],,8,,8,,
5,6,7,8,1,2,
{72}3/1v3[12:1],,,,,,
4h[384:1],,,,5h[384:1],,
,,6h[384:1],,,,
{24}7bv5[12:1]/1bp4[12:1],,,,,,
1b/7b,,,,3/6,,
{24}8bp2[8:1]/2h[24:2],,1,3,7,,
6h[24:1],,5h[24:1],,4h[24:1],,
3pp8[16:3]/1,,5/2,,6/3,,
8h[24:1],,7h[24:1],,6h[24:1],,
1q7[8:1],5,2,6,3,7,
4,,4,,2,,
5,3,4,2,4,2,
5^7[12:1],3,4,2v4[12:1],4,2,
5pp8[16:3],,,2,,,
5,,1,,2,,
3,,7,8,6,1,
5h[24:2]/2,,3,6,4,7,
8/5>1[16:2],,7/4,,6/3,,
2h[24:4]/5v8[12:1]*q1[12:1],,,,,,
{24}5b,,,,3/8,,
5h[24:2]/6h[24:2],,,,3/1,,
8/4q8[8:1],7/3,6/2,5/1,4/8,,
8,1,2,3,4,,
7/5,,6/3,,5/1,,
2,4,3,5,4,6,
3,5,4,6,5,7,
8h[24:1]/4h[24:1],,6h[24:1]/3h[24:1],,5h[24:1]/1h[24:1],,
2b-5[16:1]/4,,5/6-1[16:1],,1/8-4[16:1],,
2b,,6,,3,,
2b,,3/5,4/6,5h[24:2]/7,,
8v3[8:1],,7/3,6/2,5h[24:8]/1,,
8b,,,,,,
1pp1[8:1],,1,,1,,
5v8[8:1],,,,6,,
4^7[8:1],,,,2,,
1bp4[8:1]*q6[8:1],,,,,,
,,,,,,
6/4bw8[8:1],,,,,,
,,,,,,
{24}7b^1[8:1]/2,,,6,,,
3^1[8:1],,,4,,,
6^8[8:1],,,5,,,
2^8[8:1],,,3,,,
2>8[8:2]/6h[24:8],,,,,,
,,,,,,
5v2[8:1],,6,,7,,
8,,7,,6,,
5h[24:4]/1,,,,2,,
8/3h[24:4],,7,,6,,
5h[24:4]/1,,,,2,,
8/3h[24:4],,,,7,,
6pp1[24:12]/1qq5[24:12],,,,,,
,,,,,,
,,,,,,
,,,,,,
{72}8h[384:1]/1h[384:1],7qq1[72:25]*qq1[72:25]/2h[384:1],6h[384:1]/3qq4[72:24],,,,
,,,,,,
,,,,,,
,,,,,,
,,,,,,
,,,,,,
{24},,,,,,E
