&title=End of Mythology
&artist=アリスシャッハと魔法の楽団
&first=0
&des=NEOWIZ
&lv_5=13+
&inote_5=(123)
{12},,,,,,,,,,,,
35,,,E4,C,B2,7xh[4:1],,,5h[4:1],,,
6,,,E4,C,B2,7xh[4:1],,,4h[4:1],,,
5,,,E4,C,B2,7xh[4:1],,,3h[4:1],,,
1,,,3,4,5,4,5,6,5,,,
64,,,E6,C,B7,E1/2xh[4:1],,,8h[4:1],,5,
5,,,E6,C,B7,E1/2xh[4:1],,,8h[4:1],,4,
4,,,E6,C,B7,E1/2xh[4:1],,,6h[4:1],,8,
8,,,6,5,4,{48}3x/6x,E4/E6,E5,,{12},,,,,8b,,,,,,
{12}
2>5[4:1],,,5qq1[12:6],,,6,,,7,,,8h[12:5],,,,,{24}E3,B4,{12}E6,,8,17,,,
7<4[4:1],,,4q8[4:1],,,3,,,2,,1,2h[4:1]/8,,,5,4,5,6-3[8:1]/2-7[8:1],,,,,,
8^3[8:1]/4,,,6,,,8-4[8:1]/4x,,,2,,,1^6[8:1]/5,,,3,,,1-5[8:1]/5x,,,7,,,
2,3,4,3,4,5,4,5,6,5,6,7,Chf[2:1],,,,,8,8b,,,,,,
3-6[8:1],4,2,2xh[4:1],,,6,5,6,3,4,3,7>4[4:1],8,6,6xh[4:1],,,,,C,B7/B2,,,
6-3[8:1],5,7,7xh[4:1],,,3,4,2,6,5,7,1,4,3,8,5,6,1,5,3,7xh[4:1]/C,,,
3,4,5,4,5,6,E4,E5,E6,E2,E1,E8,3,2,1,2,1,8,1,8,7,8,7,6,4/5h[4:3],,,B6,B5,B4,B3,,,4,,,
{192}6q4>1[12:7],2q8<5[12:7],,,,,,,{24},{12},,,,,,,,,,,
1,1,5,1/5h[4:1],,,1,1,5,1,1,5,1,1,5,1/5h[4:1],,,1,1,5,1,1,5,
5h[12:1],4x,7h[12:1],1x,5h[12:1],4x,8h[12:1],2x,6h[12:1],8x,4h[12:1],3x,7h[12:1],8x,5h[12:1],4x,1h[12:1],2x,6hx[12:1],4hx[12:1],2hx[12:1],8xb-4[8:1],,,
8/2V46[4:1],,,2/6p1[4:1],7,8,1>7b[3:1],,,E8f,,,
8h[4:1],,,2>4[12:1],1,8,7<5[12:1],8,1,2,,,
1/7V53[4:1],,,7/3q8[4:1],2,1,8<2b[3:1],,,E2f,,,
1h[4:1],,,7<5[12:1],8,8,1>3[12:1],8,8,4w8[12:1],,,
4b,,2x,1x-5[12:1],3,4,1<6[12:1],,,1>4[12:1]b/3,,,
1b/7,,6x,5x<8[12:1],8,1,5>2[12:1],2x,1x,5-1[12:1]b,,,
5b/3,,3x,4x-8[12:1],1,8,4<7[12:1],,,1/4>1[12:1]b*-8[12:1]b,,,
4b,,7x,8x<5[12:1],5,4,8,3,4x,{24}E6,E7,E8,E1,E2,E3,
{12}5h[12:3]/E4,,,C,,3,3h[4:1]/5q3[12:3],,,,,,4h[12:3],,,E5,,6,4p8[12:2]/6h[4:1],,,,,,
6,6h[12:1],8,7,7h[12:1],1,8,8h[12:1],2,1,1h[12:1],3,6x/B2f/E3/E2,6,6,4x/B8f/E1/E8,4,4,2x/B6f/E7/E6,2,2,{32}4,3x,2x,1x,8x,7x,6x,5x,
{12}
4x^1[12:1]/8b,,7x,4-8[12:1]*^7[12:1]/7,,,4^1[12:1],,7x,7^4-8[4:1]*<1[4:1]/4,,,
7,,,{32}E1,E8,E7,E6,E5,E4,E3,E2,{12}E1f/C,,,2/8,1,7,
{48}6/8^5[12:1],B8,C,B4,,,,,{12}1,2/8^3[12:1],,7,6/8-4[12:1]b,,,8b/4,3,2,
{48}7/1^6[12:1],B1,C,B5,,,,,{12}2,3/1^4[12:1],,8,71,,56,47,,24,
5x^8[12:1]/1b,,2x,5-1[12:1]*^2[12:1]/2,,,5^8[12:1],,2x,2^5-1[4:1]*>8[4:1]/5,,,
2,,,{32}E1,E2,E3,E4,E5,E6,E7,E8,{12}E1f/C,,,3/1,2,8,
{48}7/1^6[12:1],B1,C,B5,,,,,{12}2,3/1^4[12:1],,8,7pp4[4:1]/1,,,5xb,,,
1x-5[12:1],2,2,7x-4[12:1],6,6,2x-5[12:1],3,3,8x<1[12:3],7,7,
4hx[2:1],,,{32}D1,D8,D7,D6,D5,D4,D3,D2,{12}D1f,,7x/2x,7b/2b,,,
7x<5-1<8-4>2[4:3],,,,,,,,,,,,6x>5p4>3[4:3],,,,,,8,,,7,,,
6,,,E6,C,B7,2x>4[12:1],,,7h[12:2],,,
7,,,E6,C,B7,2x>4[12:1],,,8h[12:2],,,
8,,,E6,C,B7,2x>4[12:1],,,6h[12:2],,,
6,,,3,4,5,3h[4:1]/6p5[12:4],,,,,,
3,,,E4,C,B2,E1/7x<5[12:1],,,4h[12:2],,,
4/5x,,,E4,C,B2,E1/7x<5[12:1],,,3h[12:2],,,
3/4x,,,E4,C,B2,E1/7x<5[12:1],,,2h[12:2],,,
3x/2,,,6,5,4,6h[4:1]/3h[4:1],,,,,,
B2/B1,6,6,B4,5,3,7h[4:1],,,{48}E5,B4,,,{12},,
B2/B1,6,6,C,5,4,6,6,3,45,,,
B7/B8,3,3,B5,4,6,2h[4:1],,,{48}E5,B5,,,{12},,
B7/B8,3,4,B1/B2,6,5,7,7,2,8/1,,,
E7/E3,,B8,E4,E5,E6,E7/C,,,E3/C,,,
E1/E5,,E2,E8,E7,E6,E4,E3,E2,E5/E1,,,
E7/E3,,A3,A5,A4,A6,C,,,A8/A1,,,
E6/E4,,A7,B5,A6,A4,A5,A3,B4,A2,,,E
