&title=泡沫
&artist=ヰ世界情緒 × 理芽
&first=0
&des=輝夜
&lv_5=13
&inote_5=(100)
{1},
{8}B1,,B6,B3,,,
{8}B2,B1,B8,B7,,,
{8}E8,,E4,E6,,,
{8}B6,B5,B4,B3,,,
{8}B8,,B3,B6,,,
{8}E8,B8,B1,E2,,,
{8}E3,,E6,E5,,,
{8}E4,B4,B5,E6,
(135)
{4},{8},
(130)
{8}7<3pp6[4:3],,{12},,1,{8}1,,{12},,2,
{4}2h[2:1],B6/B7,E1/B8,,
{8}2>6qq3[4:3],,{12},,8,{8}8,,{12},,7,
{4}7h[2:1],B3/B2,E1/B1,{12},,1,
{8}1-3^4v2[4:2],,,,6h[2:1],,,,
{8}8-6^5v7[4:2],,,,3h[2:1],,,,
{8}1-4^5v2[4:2],,,,6h[2:1],,,,
{8}8-5^4v7[4:2],,,,3,,{12},,1,
{8}2h[12:5]/5,,{12},,8,{8}7h[12:5]/3,,{12},,4,
{4}3/5^8[8:1],2,4h[4:1]/C,{12},,8,
{8}7h[12:5]/4,,{12},,1,{8}2h[12:5]/6,,{12},,5,
{4}6/4^1[8:1],7,5h[4:1]/C,{12},,1,
{8}2h[12:5]/4,,{12},,5,{8}4/6h[12:5],,{12},,5,
{4}7/4-8[8:1],3,1h[4:1]/B7/B8,{12},,8,
{8}7h[12:5]/5,,{12},,4,{8}5/3h[12:5],,{12},,4,
{4}2/5-1[8:1],6,{12}2b/7b,,1,8,1,8,
{12}2b/7b,,2,34,,5,4,6,5,47,,8,
{12}17,,7,56,,4,5,3,4,25,,1,
{4}2/8^5[4:1],5p6[4:1],1^4q3[2:1],1x,
{12}C,,8,8h[12:2],,1,1,8,2,7,3,6,
{12}45,,3,24,,8,2,7,1,26,,3,
{12}45,,6,57,,1,7,2,8,37,,6,
{12}35,,2,12,,8,8,3,3,24,,2,
{12}35,,7,57,,6,6,1,1,28,28,2b/8b,
{4},,,C,
{12}2^5[8:1]/6,,8,2,,8,1/7-4[8:1],,3,7,,2,
{12}7/1-5[8:1],,8,1,,7,5/6^1[8:1],,4,6,,3,
{12}4/2-5[12:2],,5>8[12:4],2,,B6,B7,,B5,B4,,,
{4}6/3^6[4:1],6V42[4:1],8-4[8:1],{12},,2,
{4}5/1V35[4:1],5V71[4:1],Cf,5,
{4}4/8V64[4:1],4V28[4:1],Cf,{12}4,,3,
{4}5/2V86[4:1],6V42[4:1],Cf,6,
{4}7-3[8:1]/8-4[8:1],Cf,{12}1b/6b,,2,3,4,5,
{12}4/6-1[12:1],,6,2-5[12:1],,2,8-3[12:1],,8,4-8[12:1],,4,
{12}7^4[12:1],,7,1-5[12:1],,1,8h[12:2],,4,37,,6,
{12}1/5<1[12:2],,5,1,2,3,5,4,6,37,,3,
{12}8/4>8[12:2],,4,8,7,6,4,5,3,62,,7,
{12}6/8-4[8:1],,1,28,,2,3/1-5[8:1],2,8,17,,6,
{12}7/5-1[8:1],,4,35,,3,2/4-8[8:1],3,5,46,,7,
{12}6/8^5[8:1],,1,28,,2,3/1^4[8:1],2,8,17,,6,
{12}4^1[8:1]/5^8[8:1],,36,45,,,2x/7x,3x/6x,4x/5x,3x/6x,2x/7x,1x/8x,
{4}2bx/7bx,,
