&title=ONE
&artist=Crystal Kay
&first=0
&des=LOA2
&lv_5=13
&inote_1=
&inote_5=(132){1},
{4}
1>5[2:1],E6,C,E2,
8<4[2:1],E4,E8,C,
1>5[2:1],E6,C,E2,
8h[4:1],6h[4:1],4h[4:1],
{24}
2,,,18,27,36,
{4}
4b>6[8:5]/5b<3[8:5],,,,
4h[8:3]/7h[8:3],,4h[8:3]/6h[8:3],,
4h[4:1]/5h[8:3],,3h[4:1]/5h[8:3],,
2/5^8[4:1],8-4[4:1],4^1[4:1],1>8[4:3],
Ch[1:1],,,,
7pp2[2:1],,{48}B3,B4,,,,,{8},,3,
2/4-8[4:1],,,2,{48}B3,B4,,,,,{8},,,
3qq8[2:1]/5,,,,{48}B7,B6,,,,,{8},,7,
8>4[4:1]/6,,,6,{48}B7,B6,,,,,{16}3,4,3,,6,5,
{8}
7-2v5[2:1],,4,,{48}B3,B4,,,,,{8},,3,
2/4<8[4:1],,,2,{48}B1,B8,,,,,{8},,,
2qq7[2:1]/6h[8:3],,,,{48}B6,B5,,,,,{8},,6,
{16}1/5-1[4:1],,2x,,,8x,,,{8}3hx[48:1],4x/8x,{16}3,7,2,8,
{8}
1^6[8:1],2,3,4,{48}5^2[8:1]/B7,E7,,,,,{8}5,8,1,
{16}3-7[8:1]/8,,,7,,,{8}6,{48}6V48[4:1]/E1,B1,,,,,{8},,,
{8}2p6p2[8:3],,6,7,{48}E1,B8,,,,,{8},
1-5[8:1]/7-3[8:1],,17,,1,28,{48}B2,E3,,,,,{16}7,5,6,,2,4,
{8}
3-8[8:1],4,5,6,{48}7-4[8:1]/E1,B1,,,,,{8}7,2,3,
{16}5-1[8:1]/2,,3,3,,,{8}2,{48}3qq8[2:1]/E1,B8,,,,,{8},,7,
6,5,4<8[4:1],4,{48}B2,E3,,,,,{8},4,4,
{16}3/8-4[4:1],,3x,,,5x,,,{8}2hx[48:1],1x/5x,{16}3,7,4,6,
{4}1b,2v5[8:1]/8v5[8:1],28,{8}36,27,
1b^4[8:1]/8b^5[8:1],,8-4[8:1]/1,,
8/2^5[8:1],1,8-4[8:1]/2,1,
3-6[8:1]/8,2,7-2[8:1]/3,8,1-6[8:1]/7,,1/5p4[4:1],,
35,,1-5[8:1],,1/7^4[8:1],8^3[8:1],7,8,
5-7[8:1],4-8[8:1],5,4,5p4[4:1],,5/4>6[4:1],,
1,,3V51[4:1],,1-5[8:1],8,7,6,
47,{16}2,1,{8}3-8[8:1],46,3-5[8:1],,3,8,
{16}17,,6-1[8:1],4h[16:3],,,{8}6,5>7[4:1],,7,6,
{4}5qq5b[4:1],5pp5b[4:1],1,4w8b[8:1],
{8}
A4f/E5/E4,,2x^5[8:1]/6x,,8-4[8:1]/2,1,8/3-6[8:1],2,
7-2[8:1]/3,8,4-8[8:1]/7,3,5/4^7[8:1],,2/4p3[4:1],,
48,,7^4[8:1],,2-5[8:1]/7,1-6[8:1],2,1,
4^1[8:1],5^8[8:1],4,5,3pp3[4:1],,3qq3[4:1],,
Cf,,{24}7x,,,7x,6x,5x,{4}4x-8[8:1],1<5[4:1],
{8}
5^2[16:3],,8,8qq8[4:1],,1pp1[4:1],,1,,7-4[8:1],8,1,2,3,45,36,
{16}27,,1,,6,5,7,,18,,27,,3,4,3,4,
25,,7,8,7qq5[8:1],,5q1[8:1],,7,,3,,2>7[4:1],,,,
2h[4:1],,,,{16},,2,3,45,,36,,2-5[8:1],,5-2[8:1],,
2qq3[8:3],,8<4[4:1],,8,,,,,,,,7-4[8:1],,4-7[8:1],,
7p6[4:1],,2^8[8:1],,2,,,,,,2,4,3,,6,5,
7b,8,6,1,5,2,4,3,5,4,6,5,7,4,8,3,5,2,6,3,7,4,
8h[4:1],,,,7-4[8:1],,16,,3-8[8:1],,3,,6-1[8:1],,
6,,2,,2,,34,,45,,56,,
{16}27,,8,,3,4,2,,81,,72,,6,5,7,4,
{8}8<1[4:3],,,4,{48}B3,B4,,,,,{8},,,
{4}
,7-5[8:1],1-3[8:1],8-4[8:1],4qq4p7[2:1]*pp4q1[2:1],,,{8},45,
45,,36,3>5[2:1]/6<4[2:1],,,,,,,,
{32}1x/7x,,,,,1x/7x,,,,,,,2xv8^7-5-3^2b[4:3]/8xv2^3-5-7^8b[4:3],,,,,2x/8x,,,
{4},,,{8},{32},Ch[2:1],,,{8},,,,,,{16}1>8<1[8:14],,,Ch[16:33],
{1},,
{4},2xv5[8:1]/8xv5[8:1],2x/8x,{8}4x/8x,{24}4x/8x,3x/7x,2x/6x,
{8}
5bx^8[8:1]/1bx^4[8:1],,1-5[8:1]/5,,
1/7^4[8:1],8,1-5[8:1]/7,8,
17,8,2-7[8:1]/6-1[8:1],35,62,,4q5[4:1],,
5b/4,,8-4[8:1],,8/2-6[8:1],3,28,7,
5^2[8:1],8^5[8:1],5-1[8:1],8,4qq4[4:1],,4<2[4:1],,
8b,,6V48[4:1],,8-4[8:1],1,2,3,
52,{16}7,8,{8}6-1[8:1],53,6-3[8:1],,6,1,
{16}82,,3-8[8:1],5h[16:3],,,{8}3,4<2[4:1],,2,3,
{4}4pp4b[4:1],4qq4b[4:1],8,5w1b[8:1],
{8}
A5f/E5/E6,,7x^4[8:1]/3x,,1-5[8:1]/7,8,1/6-3[8:1],7,
2-7[8:1]/6,1,5-1[8:1]/2,6,4/5^2[8:1],,7/5q6[4:1],,
5/1b,,2^5[8:1],,7-4[8:1]/2,8-3[8:1],7,8,
5-1[8:1],3-7[8:1],5,3,6qq6[4:1],,6pp6[4:1],,
Cf,,{24}2x,,,2x,3x,4x,{4}5x-8[8:1],7/5>1[4:1],
{8}
1<5[4:1],,4,4^1[8:1]*^7[8:1],,4w8[8:1],,4,,2-5[8:1],1,8,7,6,54,63,
{16}72,,8,,3,4,2,,81,,72,,5<3[4:1],4,5,4,
{4}
5b,5>7[4:1],56,5<3[4:1],35,{8}5qq1[4:1],5,{4}7,8<2[4:1],
28,8>6[4:1],68,8<2[4:1],38,{16}1,,8,,27,,3,5,4>6[4:1],,6,6,
{4}
4b,4<2[4:1],43,4>6[4:1],64,{8}4-8[8:1],4,{4}14,{16}3,7,2,6,
{8}
1-5[8:1],2,1/8w4[8:1],7,8,,2/6-1[8:1],7,
{16}56,,4,,3,4,2-5[8:1],,38,,12,,7,7,3,3-6[8:1],
