&title=璃
&artist=CNHKSS
&first=0
&des=間奏-100秒 vs BillyG
&des_5=間奏-100秒 vs BillyG
&lv_5=14
&inote_5=(128)
{1},
{16}2-4^5[8:5],,,,
,,,6h[384:1],
,,,,
,,,,
{8}7-1^2[8:5],,
,3h[384:1],
{2},
{16}4-2^1[8:5],,,,
,,,5h[384:1],
,,,,
,,,,
{16}7-5^4[8:5],,,8h[16:5],
,,,,
,,,2,
,,,,
{16}2-8^7[8:5],,,2h[4:1],
,,,,
,,,,
,,,,
{16}26,,,56,,,{8}14,,2-4^5[12:1],{4}6-8^1[12:1],
{4}6-4^3[8:1],2-8<7[8:1]*-4<5[8:1]/6,2,
{16}2/6-8^1[8:1],,,2,
{4},
48,
{16}2,6,2,6,2,6,2,6,
{48}2xb-8^7[8:1],3,4,5h[8:1],,,,,,{16},
{8}2x,{48}6xb-8^1[8:1],5,4,3h[8:1],,,
,,,{16},6x,2-4^5[8:1],
{8}2,1,
{48}1xb-3^4[8:1],8,7,6h[8:1],,,,,,{16},
{8}1x,{48}5xb-3^2[8:1],6,7,8h[8:1],,,
,,,{16},{8}5x,
6,2,
{48}7xb-1^2[8:1],6,5,4h[8:1],,,,,,{16},
{8}7x,{48}3xb-1^8[8:1],4,5,6h[8:1],,,
,,,{16},3x,5,
{8}4-6^7[8:1],8,
{32}8b,1,2,3,{8}4-2^1[4:1]*-6^7[4:1],
{4},
,
,
{48}2xb-8^7[8:1],3,4,5h[8:1],,,,,,{16},
2x,7-1^2[8:1],{48}6xb-8^1[8:1],5,4,3h[8:1],,,
,,,{16}7x,,A8,
{8}3-1^8[8:1],3,
{48}7xb-1^2[8:1],6,5,4h[8:1],,,,,,{16},
7x,2-8^7[8:1],{48}3xb-1^8[8:1],4,5,6h[8:1],,,
,,,{16}2x,,A1,
{8}6-8^1[8:1],6,
{48}1xb-7^6[8:1],2,3,4h[8:1],,,,,,{16},
1x,6-8^1[8:1],{48}5xb-7^8[8:1],4,3,2h[8:1],,,
,,,{16}6x,,A7,
{8}2-8^7[8:1],2,
{32}7b,6,5,4,{8}3-1^8[4:1]*-5^6[4:1],
,,
,,
,,
{4}2h[4:1],
{16}5,3,{8}3,
{16}7-5^4[8:1],,,8,
7,1,{8}1,
{8}6h[4:1],5,
{16}4-2^1[8:1],7,{8}3,
4,7-5^4[8:1],
8,7,
{8}3h[4:1],4,
{16}5-7^8[8:1],2,{8}2,
{16}5,,,2,
1,2,{8}8,
{8}2h[4:1],3,
{16}4-6^7[8:1],1,{8}5,
4,1-3^4[8:1],
8,1,
{8}5-7^8[8:1],3,
5,2-8^7[8:1],
3,{16}2,6,
6,2,{8}2,
{8}25,1,
{16}4,3,{8}4,
3-1^8[8:1]/5,4,
3,6,
{16}7,4,5,7,
4,5,4,5,
2,5,4,2,
5,4,2,5,
{4}4,
3,
2,
1,
{48}2xb-8^7[8:1],3,4,5h[16:1],,,{8},
{16}2x,,,4,
6,3,{8}5,
3-1^8[8:1],6,
{48}7xb-1^2[8:1],6,5,4h[16:1],,,{8},
{16}7x,,,6,
5,,,5,
6,3,{8}7,
{48}1xb-7^6[8:1],2,3,4h[16:1],,,{8},
{16}1x,,,3,
5,2,{8}4,
2-4^5[8:1],5,
{48}6xb-4^3[8:1],7,8,1h[16:1],,,{8},
{16}6x,8,,,
2,,,3,
{8}4,2,
{48}2xb-8^7[8:1],3,4,5h[16:1],,,{8},
{16}2x,,,4,
6,3,{8}5,
3-1^8[8:1],6,
{48}7xb-1^2[8:1],6,5,4h[16:1],,,{8},
{16}7x,,,6,
5,,,5,
6,3,{8}7,
{48}1xb-7^6[8:1],2,3,4h[16:1],,,{8},
{16}1x,,,3,
5,2,{8}4,
2-4^5[8:1],5,
{48}6xb-4^3[8:1],7,8,1h[16:2],,,,,,,,,
{16}6x,1,{48},,,1xb-3^4[8:1],8,7,
{4}6,
{8}6,7,
{48}7xb-1^2[8:1],6,5,4h[16:1],,,{8},
{16}7x,,,5,
3,6,{8}4,
6-8^1[8:1],3,
{48}2xb-8^7[8:1],3,4,5h[16:1],,,{8},
{16}2x,,,5,
{8}6,4,
{16}3,4,{8},
{48}1xb-7^6[8:1],2,3,4h[16:1],,,{8},
{16}1x,,,3,
5,2,{8}4,
2-4^5[8:1],5,
{48}6xb-4^3[8:1],7,8,1h[16:1],,,{8},
{16}6x,8,,,
2,,,3,
{8}4,2,
{48}2xb-8^7[8:1],3,4,5h[16:1],,,{8},
{16}2x,,,4,
6,3,{8}5,
3-1^8[8:1],6,
{48}7xb-1^2[8:1],6,5,4h[16:1],,,{8},
{16}7x,,,6,
5,,,5,
6,3,{8}7,
{48}1xb-7^6[8:1],2,3,4h[16:1],,,{8},
{16}1x,,,3,
5,2,{8}4,
2-4^5[8:1],5,
{48}6xb-4^3[8:1],7,8,1,,,,,,,,,
{4}6/2-8^7[8:1],
{6}2/6-4^3[8:1],{12}5,
6,,2,
{8}6b,2,
,,
{4}7-5^4[8:1],
{8}7,3-1^8[4:3],
{8},,
,6,
{2}6-4^3[8:1],
{8}2,2,
,,
{4}46,
{8}5,5,
{8},,
,2-4^5[8:1],
{4}6,
7,
{8}8,1-7^6[8:1],
,1,
{4}5-7^8[8:1],
{8}5,4,
{8},34,
,3,
{16}1,2-4^5[8:1],3-5^6[8:1],4-6^7[8:1],
2x,,,,
{8}8-2^3[8:1],8,
,,
{4}4-6^7[8:1],
{8}4,3,
{8},2-4^5[8:1],
,2,
{4}1-7^6[8:1],
1,
{8}5b-3^2[8:1]*-7^8[8:1],46,
{4}5,
1,
28,
{8}1-3^4[8:1]*-7^6[8:1],28,
{4}1,
{8}5,46,
5,46,
{8}3-1^8[8:1],4,
{16}3/7-5^4[8:1],,,3,
{8}7,2,
{4}15,
{8}2/4-6^7[8:1],3,
{16}4,3,,,
2-4^5[8:1],,,1,
{8}2,8,
{8}4/6,3,
6/4,{16}7,5,
{8}7,46,
{16}3,5,{8}3,
{8}35,6,
35,{16}2,4,
{8}2,35,
17,17,
{16}1-3^4[128:15],2-4^5[128:15],3-5^6[128:15],7,,,,7-1^2[128:15],8-2^3[128:15],1-3^4[128:15],5,,,,6,7,
{4}8,
1,
2,
3,
{48}4xb-2^1[8:1],5,6,7h[6:1],,,,,,,,,
{12}4x,{24}8h[24:1],,,1h[24:1],
{8},2,
6-8^1[8:1],2,
{48}2xb-8^7[8:1],3,4,5h[6:1],,,,,,,,,
{12}2x,{24}4h[24:1],,,5h[24:1],
,,,,,4h[6:1],
{12}7h[12:1],{24},,{12},
{48}8xb-6^5[8:1],1,2,3h[6:1],,,,,,,,,
{12}8x,{24}2h[24:1],,,4h[24:1],
{8},6,
2-4^5[8:1],6,
{48}6xb-4^3[8:1],7,8,1h[6:1],,,,,,,,,
{12}6x,{24}8h[24:1],,,2h[24:1],
,,,,,7h[6:1],
{12}6h[12:1],{24},,{12},
{48}5xb-7^8[8:1],4,3,2h[6:1],,,,,,,,,
{12}5x,{24}1h[24:1],,,8h[24:1],
{8},7,
3-1^8[8:1],7,
{48}7xb-1^2[8:1],6,5,4h[6:1],,,,,,,,,
{12}7x,{24}5h[24:1],,,4h[24:1],
,,,,,5h[6:1],
{12}2h[12:1],{24},,{12},
{48}1xb-3^4[8:1],8,7,6h[6:1],,,,,,,,,
{12}1x,{24}7h[24:1],,,5h[24:1],
{8},3,
7-5^4[8:1],3,
{48}3xb-5^6[8:1],2,1,8,,,,,,,,,
{12}3x,{24}8h[24:1],,{48},8xb-6^5[8:1],1,2,
{8}3,{24}8,,8x,
{12}4h[12:1],{24},3,{12},
{48}2xb-8^7[8:1],3,4,5h[16:1],,,{8},
2x,{24}4,,4,
{12}5,{24}5,6,,,
{8}2-4^5[8:1],2,
{48}6xb-4^3[8:1],7,8,1h[16:1],,,{8},
{12}6x,{24}8h[24:1],,,8,
{8}1,{24}1,,1,
{12}2,{24}2,3,{12},
{48}3xb-5^6[8:1],2,1,8h[16:1],,,{8},
3x,{24}1,,1,
{12}8,{24}8,7,,,
{8}3-1^8[8:1],3,
{48}7xb-1^2[8:1],6,5,4h[16:1],,,{8},
{12}7x,{24}5h[24:1],,,,
{8}4,{24}4,,4,
{12}3,{24}3,2,{12},
{48}1xb-7^6[8:1],2,3,4h[16:1],,,{8},
1x,{24}5,,4,
{12}5,{24}5,6,{12},
{16}3,4,3,4,
{48}4xb-2^1[8:1],5,6,7h[16:1],,,{8},
{12}4x,{24}8h[24:1],,,1,8,,,,,8,
{12}7,{24}7,6,{12},
{48}8xb-6^5[8:1],1,2,3h[16:1],,,{8},
8x,{24}3,,4,
{12}2,{24}2,5,,,
{8}1-3^4[8:1],5,
{48}5xb-3^2[8:1],6,7,8h[6:1],,,,,,,,,
{4}5x,
{16}8,3,,6,
4,5,{8}2,
{1}1b-3^4b[2:1]/8b-6^5b[2:1],
{16}6,,,5,
,,{8}4,
,B6,
B5,B4,
{24}B1,B2,B3,B4/8-2^3[2:1],{6},,
,,,
{8},,
,,
,3,
4,5,
{48}B6,B5,{4},{16},,,{48},
B3,E3,,,,,,,,,,,
,,,,,,,,,{16}C,
{1},
{2},
{48}E1,B1,{24},,,,,
,,,,,,
{1},
{1},
{1},
{1}C,
E
