&title=NotToNotice();
&artist=エノア(CV:遠野ひかる)/「CRYMACHINA」OP
&smsg_5=作曲:削除 作詞:ASPRGuS
&first=3.08
&lv_1=1
&lv_5=没
&lv_6=13+
&des_1=音
&des_5=GANTZ@初低速でやらかしたので没
&des_6=GANTZ
&wholebpm=70
&demo_seek=37.1
&demo_len=19
&inote_1=(140)
{4}1,8,1,8,1,8,1,8,1,8,1,8,1,8,1,8,1,8,1,8,1,8,1,8,1,8,1,8,1,8,1,8,
1,8,1,8,1,8,1,8,1,8,1,8,1,8,1,8,1,8,1,8,1,8,1,8,1,8,1,8,1,8,1,8,E
&inote_5=(70)
{96}
1/8qq5[2:1],27,36,45,,,,,,,,,
{16}
1h,,,,2h,,,,3h,,,,4h,,4qq1[2:1],,
5h,,,,6h,,,,7h,,,,8h,,17,,
1V35[4:1],7,,62,5V38[4:1],,,,6v3[8:1],6,6,,6,,,,
8V25[4:1]/4,1,,6,5V71[4:1],,7,,1V37[4:1],,,,5h,,,,
5-2[8:1]*-8[8:1],5,51,,5,,,,1^6[8:1],6,1/6^3[8:1],,16,,,8,
7qq3[4:1],6,51,,71,,,,1^6[8:1],2,3qq8[4:1],,13,,3,5h[16:1],
,5^2[8:1],6,71,,51,,8,8-3[8:1],7,6,,8-4[16:1]*-4[16:1]/6,,8,7,
82,{32}2,4,{16}2,{32}7,5,{16}7,{32}3,1,{16}3,{32}6,8,{16}6,{32}2,7,{16}2,{32}4,5,{16}4v6[8:1]*-1[8:1],{32}5,4,{16}5,4,
4,,,,7/8pp3[4:1],,2,5,8qq5[4:1],,,,8pp4[4:1],,,,
8<5[8:1],,6,,8,,,,2,3,47,,1b/5b,,1v7[8:1]/5,84,
7v5[8:1]/3<2[8:3],,13,,3,,,,,,,,83,,2v5[8:1],6V82[4:1],
2,,2,6v3[8:1],,,,,,8,7,,15,,8v2[8:1]/4,15,
2v4[8:1]/6>7[8:3],,86,,6,,,,,,,,6h[16:1]/8h[16:1],,27,36,
4pp4[4:1]*qq4[4:1]/5,,{32}4,5,{16}4,,,,,,,,,37,,1v3[8:1]*v7[8:1],82,
3<2[8:3]/7V51[4:1],,,,,,,,,,6h,,28,,7V51[4:1],2,
7/2v4[8:1],,7,2,2,,,,1^6[64:7]/2,3/8^5[64:7],4/7^4[64:7],,1pp4[4:1]/2,,,,
1-6[8:1],,,,1^4[8:1],,,,1-5[8:1]/7,,,,13,2-7[8:1]*-6[8:1],,,
83,2,,,,,,,7-3[16:1]*-3[16:1]/4,{32}3,6,{16},25,7,{32}2,2,{16},2-6[16:1]*-6[16:1]/5,
3,{32}6,3,{16},8,8b/2,,,,
{32}1-5[16:1]/7,2,3v2[16:1],4,{16}5^8[16:1]/1,,1,3,,,2v5[16:1],6,5v2[16:1]/2,,2,7,,,
{32}8-4[16:1],7,6v7[16:1],5,{16}4^1[16:1]/8,,8,6,,,7-4[16:1],3,4v6[8:1]/7,,7,2,,,
{32}4q8[16:1],3,2v3[16:1],1,{16}8v5[16:1]/4,,4,2,,,3v8[16:1],7,8p2[8:1]/3,,3,5,,,
{32}5p1[16:1],6,7v6[16:1],8,{16}1v4[16:1]/5,,5,7,,,6v1[16:1],2,1q7[8:1]/6,,6,4,,,
{96}1pp4[2:1],2,3,4,,,,,,,,,
{16}
,,8h,,,,7h,,,,6h,,5h,,
1/5z1[2:1],,,,3h,,,,3h,,,,7h,,8-5[16:9]*-3[23.33#48:1],,
,,,,,,,,,{32},8,{16}8,,,,,,E
&inote_6=(70)
{96}
1/8qq5[2:1],27,36,45,,,,,,,,,
{16}
1h,,1h,,2h,,2h,,3h,,3h,,4h,,4qq1[2:1],,
5h,,5h,,6h,,6h,,7h,,7h,,8h,,17,,
1V35[4:1],7,,62,5V38[4:1],,,,6v3[8:1],6,6,,6,,,,
8V25[4:1]/4,1,,6,5V31[4:1]/8,,7,,1V73[4:1]*^6[8:1],,,,,,,,
5-2[8:1]*-8[8:1],5,53,,5,,,,1^6[8:1],6,1/6^3[8:1],,16,,,8,
7qq3[4:1],6,51,,71,,,,1^6[8:1],2,3qq8[4:1],,13,,3,5h[16:1],
,5^2[8:1],6,71,,51,,8,8-4[8:1],7,6,,8^5[8:1]/6,,8^3[8:1],,
8v5[8:1]/2,,8v3[8:1],,8^5[8:1],,8^3[8:1],,8,,8,,5v2[8:1]*v8[8:1],5,53,54,
5,,,,8/1pp4[4:1],7,6,5,4^1[8:1]/1,,,,5pp8[4:1],,6,,
8<4[4:1],,1,,2,,,,2,3,48,48,1b/5b,,1v7[8:1]/5,84,
7v5[8:1]/3<2[8:3],,13,,3,,,,5h,,,,83,,2v5[8:1],6V82[4:1],
26,,2,6v3[8:1],,,,,,8,7,6,15,,8v2[8:1]/4,15,
2v4[8:1]/6>7[8:3],,86,,6,,,,4h,,,,6h[16:1]/8h[16:1],,27,36,
4pp4[4:1]*qq4[4:1]/5,,{24}4,5,4,{16},,,,,,4,5,37,,1v3[8:1]*v7[8:1],82,
3<2[8:3]/7V51[4:1],,,,,,,,,,6h,,28,,7V51[4:1],2,
7/2v4[8:1],,7,2,2,,,,1^6[8:1]/2,38,47,,1v4[8:1]/2,,,,
1^4[8:1]/5-8[8:1],,,,1-6[8:1],,,,1-5[8:1]/7,,,,13,2V86[4:1]*V84[4:1],,2,
83,2,,,,,,,7-3[16:1]*-3[16:1]/4,{32}3,6,{16},25,7,{32}2,2,{16},2-6[16:1]*-6[16:1]/5,3,{32}6,3,{16},28,8b,,,,
{32}1qq5[4:1]/7,2,3,4,5,6,7,8,{16}1/5V38[4:1],,,,{32}7v4[8:1],,7h[32:1],,6,,,,{16}7,,{48}8,1,2,3,4,,
{32}8pp4[4:1],7,6,5,4,3,2,1,{16}8/4V61[4:1],,,,{32}2v5[8:1],,2h[32:1],,3,,,,{16}2,,{48}1,8,7,6,5,,
{32}1qq5[4:1],2,3,4,5,6,7,8,{16}1/5qq1[4:1],,,,{32}8v6[8:1],,7h[32:1],,7,,,,{16}8,,{48}8,1,2,3,4,,
{32}7pp3[4:1],6,5,4,3,2,1,8,{16}7/3V16[4:1],,,,{32}4v1[8:1],,4h[32:1],,4,,,,{16}4,,{48}6,5,4,3,2,1,
{96}8qq5[2:1],27,36,45,,,,,,,,,
{16}
,,1h,,,,2h,,,,3h,,4h,,
8/4s8[2:1],,,,6h,,,,6h,,,,2h,,1v6[16:9]*-4[23.33#48:1],,
,,,
,,,,
,,{32},1,{16}1,,,,,,E
