&title=vocandroid [STD]
&artist=lumo
&first=0.61
&des=ditto.
&lv_5=13+
&inote_5=(200){1},
{16}1h[8:11],,,,8,,8,,,,2,,,,2,,
{16},,7,,,,6,,8,,6,,8,,6,,
{16}8h[8:11],,,,1,,1,,,,7,,,,7,,
{16},,2,,,,3,,1,3,1,,2,4,2,,
{16}5/2,,3,4,3,,5-8[8:1]/2,,,,5/3v8[8:1],,,,3/7v4[8:1],,
{8},7/1h[8:5],,5,6,5,6,,
{16}4/7,,6,5,6,,4-1[8:1]/7,,,,4/6v1[8:1],,,,6/2v5[8:1],,
{16},,2/8,,8,,8,,8,1,7,2,6,3,5,4,
{4}5h[1:1],4,4,4,
{4}4h[1:1],5,6,7,
{4}8h[1:1],4,3,2,
{8}1,7/2
,7/2,,6/3,{16}5,4,5-8[8:1],4,5,4,
{8}5b,,2,2-5[8:1],,2/7-2[8:1],,7/4>1[8:1],,8h[8:5]/4,,2,2,1,2,1,
{16}1/6,,7,8,7,,6/1,,,,5/2,,,,4/3,,
{8},3,3,3,3,{16}5,3,6,3,7,3,
{4}7h[1:1],3,3,3,
{4}3h[1:1],7,6,7,
{8}8h[4:3],4,4,4,4,4,4,8/4,
{8},7/3,7/3,,6-1[8:1]/2-5[8:1],,,,
{8}8/3,{16}1,2,1,,{8}7/3,,6/3,,5<8[8:1]/4,
{8},,,1,8/2,7/1,6/8,6/8,
{8}1/6,{16}8,7,8,,{8}2/6,,3/6,,4>1[8:1]/5,
{8},,,8,1/7,2/8,3/1,3/1,
{8}3h[4:1],,8,7h[4:1],,1h[4:1],,6,
{8},{16}2,6,{8}2h[4:1],,5h[4:1],,3b,,
{8}5/4,,5/4,,{16}5,4,5,4,5,4,5,4,
{16}5,4,5,4,5h[4:1],,,,2,,,,8/1,,,,
{16}1,8,1,8,1,8,1,8,1,8,1,8,1h[4:1],,,,
{4}5<8[4:1],5,3>8[4:1],3,
{4}4h[8:1],,8<5[4:1],8,
{4}2>5[4:1],2,7-2[4:1],7,
{4}3>8[4:1],3,4-8[4:1],4,
{4}5>2[4:1],5,6-3[4:1],6,
{4}1<6[4:1],6>3[4:1],3>8[4:1],,
{4}5h[2:1],,,,
{4}5h[4:1]/4h[4:1],,{8}5/4,5/4,5/4,5/4,
{8}6/3,6/3,6/3,6/3,{16}7,2,7,2,8,1,8,1,
{8}8<5[8:1],1,2,3,4<7[8:1],3,2,1-5[8:1],
{8},1/7-4[8:1],7,,3h[4:1],,8,8,
{8}8b/3b,,7/2,7/2,,8/1,1-5[8:1]/8,8/1,
{4}1b/8-5[8:1],8b/2-5[8:1],7h[4:1]/2b,{8}4,4,
{8}4-7[8:1],7<3[4:1],8,8,,8-5[8:1],2,2,
{8},1,1,6,5/1,6/2,7/3,8/4,
{8},7/3,7/3,6/2,6/2,5/1,5/1,6/2,
{4}6/2,7-4[8:1]/3-8[8:1],7/3,6/2,
{8}1-5[8:1],1,7-4[8:1],7,3-8[8:1],3,4-7[8:1],4,
{8},2-5[8:1],2,,6h[4:1],,1,1,
{8}1b/6b,,7/2,8/3,,1/8,7-4[8:1]/2,6/3,
{4}7b/2<7[8:1],2b/6-1[8:1],4h[4:1]/6b,{8}5,5,
{8}5-2[8:1],2>6[4:1],1,1,,1-4[8:1],7,7,
{8},8,8,3,3/8,3/7,3/6,3h[4:3]/5,
{8},4,4,5,5,6,6,3/7,
{4}3/7,2>5[4:1]/6<1[4:1],2/6,,
{8}8/4,{16}7,5,{8}6,7/5,,6/4,,5-8[8:1]/3-8[8:1],
{8},,,,1,1,4/2,4/2,
(205)
{8}1/5,{16}2,4,{8}3,2/4,,3/5,,4/6<1[8:1],
(201)
{16},,{24}5,4,3,{16}2-6[8:1],,,,2/8w4[8:1],,,,,,,,
(200)
{8}8/1,,8/1,,{16}8,1,8,1,8,1,8,1,
{16}8,1,8,1,8h[4:1],,,,3,,,,5/4,,,,
{16}4,5,4,5,4,5,4,5,4,5,4,5,4h[4:1],,,,
{4}8-5[4:1],8,2-5[4:1],2,
{4}7-2[4:1],,5-8[4:1],5,
{4}3-8[4:1],3,6-3[4:1],6,
{4}2-5[4:1],2,1-5[4:1],1,
{4}8-3[4:1],8,7-2[4:1],7,
{4}4-7[4:1],7-2[4:1],2-5[4:1],,
{1}8h[1:1],
{2}1h[2:1],
{8}8,8/1,7,7/1,6,6/1,5,5/1,{16}5,4,3,2,1,8,7,6,
{4}5h[8:3],{16},,1,,{4}1/5h[4:1],1,
{4}2/5h[4:1],2,5h[4:1]/3,3,
{4}5h[2:1]/4,4,{16}3,,3,2,{8}1,5,
{16}2,6,2,6,3,7,3,,{4}8/4h[4:1],8,
{4}7/4h[4:1],7,4h[4:1]/6,6,
{16}4h[4:1]/5,6,7,,1,,8,,7,3,7,3,6-3[8:1],2,6,2,
{8}6,,2-7[8:1],2,2,,5,6,
{8}1-5[8:1],1,7-3[8:1],7,2-5[8:1],2,8-4[8:1],8,
{8}1h[8:3],,,5h[8:3],,,2-6[4:1],,6<8[4:1],,8-2[8:1],,5,,6,6,
{8}7h[4:1]/1h[4:1],,,6h[4:1]/2h[4:1],,,5<8[8:2]/3>8[8:2],,
{4}5b/3b,,{16},1,,1,2,3,4,5,
{16}6,5,6,5,6,5,6,5,7,4,7,4,7,4,7,4,5,3,5,3,5,3,5,3,6,2,6,2,6,2,6,2,
{16}7,2,7,2,7,2,7,2,8,1,8,1,8,1,8,1,8,1,7,2,8,1,7,2,8,1,7,2,8-4[4:6],1,7,2,
{1}8b,
{4}1,1,2,2,
{8}3>6[4:5],,,5,,,,4,
{8},5,5,,4,,5,5,
{8}6<3[4:5],,4,4,,5,5,,
{8}4,4,4,,5,,4,4,
{8}3,3,2,1h[4:1],,7,6,5h[4:1],
{8},1,1,,6,6,6/2,5/3-8[4:1],
{8},5,5,6,{16}7,6,5,4,1,2,3,4,
{8}7/5,,6/4,,5b/3b,,2-7[8:3]/4,4,
{8}4,,5,5b,,6/5,6/5,6b/5b,
{8},{16}7/5,,5/7b-4[8:1],4,3,2,{8}1h[4:1],,5-8[8:1],5,5b/2-7[8:1],,2b,4-8[8:1],,4b,5,6,
{4}7,7-3[8:1]/8-4[8:1],7b/8b,{8}1-6[8:1],6-3[8:1],
{8}1,7,{16}8,7,{8}6h[4:1],,4,3,2,
{8},2/6,7-4[8:1]/3,,7b/3,2,1,8h[4:1],
{8},6,5,4,{16}1,2,3,4,7,6,5,4,
{4}1h[4:1],8h[4:1],{24}1b,2,3,4,5,6,7,8,1,2,3,4,
{8}7b/5,6,2/4,3,7/5,6,2/4,3-6[8:1],
{8},8,8h[2:1],,5,,4,4,
{8}7b-2[8:1]/4,,3,3b>8[8:1],,4,5<8[8:1],5,
{8}1b,,2,,3h[4:1],,7-2[8:1],2-5[8:1],
{8}7,,1,1h[4:1],,5,6,7h[4:1],
{8},2,2-6[8:1]/6-2[8:1],,,,7/3,7b/3b,
{8},8/4,8/4,7/3,7/3,6/2,1/5,6/2,
{8}6/2,,1-4[8:1]/5-8[8:1],,1/5,,3h[4:1],,
{8}7-3[8:1],7,1-5[8:1],1,6-3[8:1],6,2,2h[4:1],
{8},5,3-7[8:1]/4-8[8:1],,3/4,,6-1[8:1],6,
{8}6b/2-5[8:1],,7,7h[4:1],,{16}2,3,4-1[8:1],,4,,
{8}4b-7[8:1],,4bw8[8:1],,4b,,2-5[8:1],2,
{8}7-4[8:1],7,1-5[8:1],1,8-4[8:1],8,2-6[8:1],2,
{8}1-5[8:1],1,8-4[8:1],8,7-3[8:1],7,2,2b,
{8},3/4,3/4,5/2,5/2,6/1,6/1,7/8,
{8}7h[4:1]/8,,1h[4:1],,{24}8,7,6,5,4,3,2,1,8,7,6,5,
(192.75)
{1}4b<8[4:9]/8b>4[4:9],,,
{4},7/3,,7V14[4:7]/3V58[4:7],
{1},,
{4},6/2,,6h[32:101]/2h[32:101],
{1},,
{4},,,{32},,,,,,
{32}7/3,8/4,1b/5b,
E
