&title=冒涜的選択のアレグリア ft. Mayumi Morinaga
&artist=Iceon(Frost Fragment)
&first=0
&des=NullZone
&lv_5=13
&inote_5=(156)
{1},{64},,,,,
{8}
5b/3h[8
:
3],,,4,4h[8
:
3],,,5,5h[8
:
3],,,6,6h[2
:
1],,,,
7pp4[8
:
5],,,,,,,,,
7,5,6,2,4,3-5[8
:
1],,7h[8
:
3],,,8,8h[8
:
3],,,1,1h[8
:
3],,,
2>5[8
:
1],,6,6<1[8
:
1],,4qq8[2
:
1]
*
pp8[2
:
1],,,,
,,,,
7<4[8
:
1]/1>4[8
:
1],,,,8w4[8
:
1],,8b,,
{16}
2b>4[8
:
1],,,8,2,,7,,6<8[8
:
1],,,4,6,,3,,
2-4[8
:
1],,,8,2,,7,,6-8[8
:
1],,,4,6,,3,,
2h[8
:
1],,4,3,4,,2,1,2,,5,4,5,,1,8,1,,
6/2,,7,,8/4,,1,,6/2,,3b,,,,
7p3[8
:
1],,,8,7,,1,,2q6[8
:
1],,,1,2,,8,,
7-2[8
:
1],,,,7,,3-6[8
:
1],,,,3,,7h[4
:
1],,,,
4,,6,5,7,,3,4,2,,6,5,8,,3,4,1<6[8
:
1]
*
v4[8
:
1],,,,1b,,,,
5/3h[16
:
3],,,2h[16
:
3],,,1h[8
:
1],,
8-2[8
:
1],,,,4-6[8
:
1],,,,7-1[8
:
1],,,,3-5[8
:
1],,,,
6-8[8
:
1],,,,2-4[8
:
1],,,,5-7[8
:
1],,,,1-3[8
:
1],,,,
8h[8
:
1],,,,8h[8
:
1]/4h[8
:
1],,,,7h[8
:
1],,,,7h[8
:
1]/3h[8
:
1],,,,
6,5,6,4,5,4,6,5,7,4,5,3,6,5,7,4,
8p4[8
:
1],,,,8/1,,,,2h[16
:
3],,,3h[16
:
3],,,4-1[8
:
1],,,,
5,,6,,7,,8/1h[16
:
3],,,2h[16
:
3],,,3V14[4
:
1],,,,
8,,7,,6,,5h[16
:
3],,,4h[16
:
3],,,3<1[4
:
1],,,,
1,,2,,3,,4-7[195#32
:
5]
*
-8[195#32
:
5],,,4,,,,,
1q5[8
:
1],,,,8/1,,,,7h[16
:
3],,,6h[16
:
3],,,5-8[8
:
1],,,,
4,,3,,2,,8h[16
:
3]/1,,,7h[16
:
3],,,6V85[4
:
1],,,,
1,,2,,3,,4h[16
:
3],,,5h[16
:
3],,,6>8[4
:
1],,,,
8,,7,,6,,5h[16
:
3],,,3,,,6/2,,
7-5[8
:
1]/8-4[8
:
1],,,,7b/8b,,,,2h[16
:
3],,,3,,,1/4,,,,
3-5[8
:
1],,7-1[8
:
1],,3,,7,,,4,,,7/1,,,,
5<8[8
:
1]/3,,5/3,,,,2h[16
:
3],,,1h[16
:
3],,,8>3[8
:
1],,,,
4,,5,,6,,7-4[195#32
:
5]
*
-3[195#32
:
5],,,7,,,,,
1-5[8
:
1]/2-4[8
:
1],,,,1b/2b,,,,7h[16
:
3],,,6,,,8/5,,,,
6-4[8
:
1],,2-8[8
:
1],,6,,2,,,5,,,8/2,,,,
6/4>1[8
:
1],,6/4,,,,7h[16
:
3],,,8h[16
:
3],,,1<6[8
:
1],,,,
5,,4,,3,,2>5[195#32
:
5],,,1/2,,,1,,8,,8,,7,,7,,6,,6,,5,,5,,
3,4,3,4,2,5,2,5,1,6,1,6,8,7,8,7,
1b-4[8
:
1],,,7,1,,6,,5-8[8
:
1],,,3,5,,2,,
1>4[8
:
1],,,7,1,,6,,5<8[8
:
1],,,3,5,,2,,
1,,7,5,6,,2,4,3,,6,5,7,,3,4,2,,
6,,7/5,,6,,5/4v7[8
:
1],,3,,4/2b,,,,
1-4[8
:
1],,,6,1,,7,,8-5[8
:
1],,,3,8,,2,,1>6[8
:
3],,,,,,6p1[4
:
1],,,,
7,,7h[4
:
1],,,,2h[8
:
1],,4,3,4,,2,1,2,,5,4,5,,1,8,1,,
6,5,7,,3,4,2b,,,7b/5b,,,6b/3b,,
8b-5[8
:
1]/1b,,,2,8,,3,,4-1[8
:
1],,,6,4,,7,,
8<5[8
:
1],,,2,8,,3,,4>1[8
:
1],,,6,4,,7,,
8,,2,4,3,,7,5,6,,3,4,2,,6,5,7,,
3,,4/2,,3,,5v2[8
:
1]/4,,6,,7b/5,,,,
8-5[8
:
1],,,3,8,,2,,1-4[8
:
1],,,6,1,,7,,8<3[8
:
3],,,,,,3q8[4
:
1],,,,
2,,2h[4
:
1],,,,7h[8
:
1],,5,6,5,,7,8,7,,4,5,4,,8,1,8,,
3,4,2,,6,5,7,,2,4,3,,7b,,
2-4[8
:
1],,2,,6-8[8
:
1],,6,,1-4[8
:
1],,1,,5-8[8
:
1],,5,,
2-5[8
:
1],,2,,6-1[8
:
1],,6,,3-6[8
:
1],,3,,7,,7,,2,,
8,1,8,,3,6,3,,7,8,7,,2,1,2,,6/3,,5/4,,6/3,,7-4[8
:
1]/2-5[8
:
1],,8/1,,7b/2b,,,,
3-1[8
:
1],,3,,4-8[8
:
1],,4,,3-7[8
:
1],,3,,4-6[8
:
1],,4,,
3-1[8
:
1],,3,,4-8[8
:
1],,4,,3-7[8
:
1],,3,,5,,5,,1,,
6,4,6,,3,5,3,,6,4,7,,3,5,2,,6,4,8,,3,5,1b,,,4b/3b,,,6b/5b,,
7-5[8
:
1],,7,,3-1[8
:
1],,3,,8-5[8
:
1],,8,,4-1[8
:
1],,4,,
7-4[8
:
1],,7,,3-8[8
:
1],,3,,6-3[8
:
1],,6,,2,,2,,7,,
1,8,1,,6,3,6,,2,1,2,,7,8,7,,6/3,,5/4,,6/3,,7-4[8
:
1]/2-5[8
:
1],,8/1,,7b/2b,,,,
6-8[8
:
1],,6,,5-1[8
:
1],,5,,6-2[8
:
1],,6,,5-3[8
:
1],,5,,
6-8[8
:
1],,6,,5-1[8
:
1],,5,,6-2[8
:
1],,6,,4,,4,,8,,
3,5,3,,6,4,6,,3,5,2,,6,4,7,,3,5,1,,6,4,8b,,,6b/5b,,,4b/3b,,
{1}
5b<3[4
:
5]/2b<4[4
:
5],,
{16}
3b,,4,,5,,6,,3,,4,,5,,6,,3b,,4,,5,,6,,3,,4,,5,,6,,
8/2h[8
:
6],,,,1,,1,,,,4,,4,,,,7h[8
:
6]/1,,,,8,,8,,,,5,,5,,,,
3,,4,,5,,6h[8
:
3],,,,1,,1,,,,4,5,
{4}
3V57[1
:
2]
*
V17[1
:
2],,,,
,,,,
,,,,
,,,
{1}
8-5[8
:
1]/1-4[8
:
1],,,,
E
