&title=比翼の羽根 long ver.
&artist=eufonius
&first=0
&des=luvlily
&lv_5=12+
&inote_5=(148){1},
{16}3,,,,,,5,,,,,,,,2,,
{16},,,,,,7,,,,,,,,,,
{16}2,,1,,7,,6h[4:1],,,,2,,3,,4>7[1:1],,
{16},,,,,,,,,,,,,,,,
{16}5h[1:1],,,,,,,,,,,,,,,,
{16}7>5[8:6],,,,,,,,,,,,,,,,
{16}7qq6[8:5],,,,,,,,,,,,,,1,,
{16}1pp2[8:5],,,,,,,,,,,,,,5,,
{16}5pp6[8:5],,,,,,,,,,,,,,2,,
{16}2qq1[8:5],,,,,,,,,,,,,,6,,
{16}6p3[4:3],,,,,,,,,,,,,,2,,
{16}2q5[4:3],,,,,,,,,,,,,,8,,
{16}8,,,,3,,3,,,,16,,,,2,,
{16}35,,,,8,,75,,,,16,,16,,,,
{16}3>7[2:1]/5,,,,5,,,,5,,,,5,,,,
{16}5/7>3[2:1],,,,5,,,,5,,,,5,,,,
{16}6<2[2:1]/4,,,,4,,,,4,,,,4,,,,
{16}4/2<6[2:1],,,,4,,,,4,,,,3,,,,
{16}7p4[2:1]/1,,,,1,,,,1,,,,1,,,,
{16}2/4p1[2:1],,,,2,,,,2,,,,2,,,,
{16}2/8-6[8:1],,,,3,,3-1[8:1],,,,7,,7-5[8:1],,,,
{16}2^4[8:1],,,,8^6[8:1],,,,1-4[8:1],,,,8,,,,
{16}7,,6,,2,,3h[4:1],,,,1,,8,,7-4[8:1]/3,,
{16},,1,,2,,3,,4-1[8:1],,5,,6,,7,,
{16}8,,17,,26,,3/5<1[32:7],,,,2,,3,,4-1[8:1],,
{16},,8,,7,,6,,5-8[8:1],,1,,2,,3-6[8:1],,
{16},,1,,8,,7-3[8:1],,5,,4,,2,,2,,
{16}14,,26,,37,,45,,27,,27,,18,,1w5[8:3]/8,,
{16},,,,,,,,,,,,1,2,3,4,
{16}5-1[8:1]/6,,,,5,,7^4[8:1],,,,7-2[8:1],,,,7,,
{16}4^7[8:1],,,,4,,8-4[8:1],,,,8,,5,,6,,
{16}2^5[8:1]/7,,,,2,,6-1[8:1],,,,16,,,,2-6[8:1],,
{16}6-2[8:1],,2,,7,,8w4[8:1],,,,8,,,,2^7[8:1]/6,,
{16},,2,,5-1[8:1],,,,5,,2,,3,,4/8-4[8:1],,
{16},,3-7[8:1],,,,6-2[8:1],,,,1-5[8:1],,,,7,,
{16}6-2[8:1],,,,6,,1^4[8:1]*^6[8:1],,,,1,,,,,,
{16}2b/6b,,3b/7b,,4b/8b,,5b-1[8:1]/1b,,,,5,,8,7,6,5,
{16}4-8[8:1]/2,,,,4,,2^5[8:1],,,,2^7[8:1]/1,,,,2,,
{16}5-1[8:1],,,,5,,7p3[8:1],,,,7,,1,8,7,6,
{16}5^2[8:1],,,,5,,8w4[8:1],,,,8,,,,2-7[8:1],,
{16}6-2[8:1],,2,,6,,1-4[8:1]*^3[8:1],,,,1-6[8:1]*^7[8:1],,,,1-5[8:1],,
{16},,1,,6^1[8:1]*^3[8:1],,,,6,,,,2,,38,,
{16}2b/6b,,,,15,26,3b/7b,,,,48,37,26,15,4b/8b-4[8:1],,
{16},,18,,2,,3,,4-1[8:1],,5,,6,,7,,
{16}8,7,6,5,4,3,2-6[8:1],,,,2/8qq2[2:1],,,,8b,,
{16},,,,,,,,,,35,,35,,2pp4[8:3]/6pp8[8:3],,
{16},,,,,,,,,,,,17,,26,,
{16}3-6[8:1],,5,,3,,7,,7-3[8:1],,4,,7,,2,,
{16}2^7[8:1],,5,,2,,6,,6-2[8:1],,8,,6,,1,,
{16}1-4[8:1],,8,,6-1[8:1],,7,,3^6[8:1],,2,,8v3[8:1],,1,,
{16}4>8[8:1],,5,,7p4[32:10],,6,,,,8,,1,,2,,
{16}3bV17[32:6]/5b,,,,37,,5V37[32:7],,,,58,,2V48[32:7],,,,
{16}12,,,,7,6,5v7[8:1]/1v3[8:1],,,,15,,,,2b/6b,,
{16},,15,,6,,78,1,2,3,4h[8:1],,3<7[32:8],2,1,8,
{16}7,,,,3,4,5,6,2<6[32:8],3,4,5,26,,,,
{16}1b,,,,8>4[4:1]/1,7,6,5,4,,6,7,8,1,2,3,
{16}4<1[32:10]/8<3[32:10],,,,,,,,,,,,2,13,48,75,
{16}6,,,,1,2,34,5,6,7,8h[8:1],,7>3[32:8],6,5,4,
{16}3,,,,7,8,1,2,6>2[32:8],7,8,1,62,,,,
{16}5b,,,,4<8[4:1]/5,3,2,1,8,,2,3,4,5,6,7,
{16}8-4[8:1]/4-8[8:1],,,,4>8[4:1]/8<4[4:1],,,,,,,,,,,,
{16}3b-7[8:1],,,,,,8b-3[8:1],,,,,,4,,4bqq4[4:7]*pp4[4:7],,
{16},,,,,,,,,,,,,,,,
{16},,,,,,,,,,,,,,,,
{16},,,,,,,,,,,,,,,,E
