&title=アイワナムチュー
&artist=NCOP MAISONdes【feat. asmi, すりぃ】
&first=0
&des=Melt℃
&clock_count=4
&lv_5=13
&inote_5=(158)
{1},
{4},,,,6h[4:1],5,4,3h[4:1],4,5,3/5,1pp5[8:3],6h[4:1],
{4},4h[4:1],5h[4:1],
{8}3,3,3/5,3,5/3pp8[8:3],,,,
{8}6,6,6/4,6,6<8[8:1]/4>2[8:1],6,6/4,,
{8}1/2,3,4/5,6,7/8,1,1<6[32:5]/2p5[32:5],,,,
{8}3h[8:1],4,5,6h[8:1],5,4,3,2/5,3qq8[8:3]/4pp7[8:3],2/5,3/4,,,,
{8}1/6,2,3/7,6,4/5,3,2/6,7,1/8,
{16},2p5[16:2],8,,,,,,,,
{16}4,3,2,,
{8}1/8,2,3/7,6,4/5,3,2/6,7,1/8h[16:3],
{16},2-6[8:1],,,1,,8,,,,5,4,3,2,
{8}1,2/5,3,4/7,3,2/5,1,2/6,8h[16:3]/4,
{16},1-5[8:1],,,8,,2,,,,7/4,6/3,5/2,4/1,
{8}8-4[8:1],,8/2-5[8:1],,2/7-3[8:1],
{16},,7/1w5[8:1],,,,
{8}1b,,3h[4:1],4,5pp2[8:3],,3h[4:1],,,,
{8}8h[4:1],1,2V48[8:3],,4,5,6h[4:1],,
{8}7,8,1pp5[8:3],5,6,7,8h[16:4],,,6,5,4,3h[4:1],4,5pp1[16:5],,,
{8}3,3,3,3/7,4,3h[8:3]/6bp1[4:1],,,,4,
{16},8h[16:3],,,6h[8:1],,4V26[4:1],,,,5h[4:1],,,,,,
{8}5,5,5/4,5q2[4:1],,4h[4:1],,,3h[4:1],4,5,5pp7[8:1]/4qq2[8:1],,,,
{16},3,,,4,,5,,6<3[2:1],,,,,,,,3>6[2:1],,,,,,,,4h[8:1],,,,5h[8:1],,,,6h[4:1],,,,
{8}7,8,1-5[8:1]/2,8,1/2,,1-5[8:1]/2,8,1/2,,4/7,3/8,1-5[8:1]/2,8,1b,,
{8}6h[4:1],,4h[4:1],,5,,6h[4:1],,
{16}3>6[2:1],,4,,4,,5,,6<3[2:1],,5,,4,,,,5,,5,,6,,6/4,,3,,7/3,,8,,,2/8,,,1/6,,8/3,,,1,,,1-4[8:1],,
{16},7-2[8:1],,3-7[8:1],,,1w5[8:1],,,,,,,,,,
{8}8bp4[8:1],,
4,3,2-5[8:1],2,5,6,7p3[8:1],
7,3,2,1q5[8:1],1,5,6,7-5[8:1],
7,4p8[8:1]*>1[8:1],4,,
{8},7-4[8:1],
7,3-1[8:1],3,
{8}8>3[8:1]*v3[8:1],,8b<5[8:1]*v5[8:1],,8bw4[8:1],,8b,
{8},2>5[8:1],2,5,6,7-4[8:1],7,
4,3,2<7[8:1],2,7,6,5-2[8:1],2,
{8}1,8,8h[4:1],,4h[4:1],
{16}7,,2,,5/3,,,2/4,,,5/7,,
{16}5/1,,2/7b,,1b/5,,2b-5[8:1]/7-4[8:1],,1/5b,,
{16}2b/7b,,,,
{16}8p4[8:1]*<5[8:1],,,,
{8},,4V27[8:1]*>8[8:1],,,,
{8}2,
2,2/4,2,
{8}4/2,3,4b/5b,,
{16}5/6,,,,7/4pp8[16:9],,,,6h[4:1],,
{8},,,5,6,6,6,6/8,6,
{2}6h[4:1]/8bp3[8:1],
{8}1b/2b,3,4/5,6,
{16}7,,8,,7h[8:1],,
{8}8,8b/7b,6,4/5,3,{16}2,,1,,3h[8:1],,
{8}4,3/4,2,1/8,7,
{16}6,,5,,7h[8:1],,
{8}5,
{16}5/7,,6/8,,1/3,,
{8}2/4,{16}1b-5[8:1],,,,
{4}1b,
7h[4:1],5h[4:1],4h[4:1],2V47[4:1],
7b<2[4:1],2,
{8}8,8,8/1,,
{4}2h[4:1],4h[4:1],5h[4:1],7V52[4:1],
2b>7[4:1],7,
{8}1,1,8,2/8,
{8}2/8h[8:1],2,3/1h[8:1],3,4/2h[8:1],4,5/3V16[4:1],6,
{4}6b<3[4:1],
{8}4,5,6,7,
{4}8v5[8:1]/1v4[8:1],1b/8b,
{8}3/6-1[8:1],4,6/4-8[8:1],3,4/7-3[8:1],6,2b-6[8:1],,5b-1[8:1],,5/3b-8[8:1],
