&title=ジョジョ 〜その血の運命〜
&artist=富永弘明
&first=0.0333
&des=その運命の開始
&lv_2=4.0
&lv_3=6.9
&lv_4=8.5
&lv_5=11.0
&lv_6=13+
&inote_2=(146){1},
{1}8h[1:1],
{1},
{1}7-2[2:1],
{1},
{2}3,2,
{1}1b,
{1}8-5[2:1],
{1},
{2}4,6,
{1}8b,
{4}1,1,,,
{4}2,2,,,
{1}8h[1:1],
{1},
{4}7,7,,,
{4}6,6,,,
{1}8h[2:1],
{1}1h[2:1],
{4}1,1,,,
{4}2,2,,,
{4}1,1,,,
{1}8h[8:3],
{1}7h[8:3],
{1}1b,
{1}2h[4:3],
{1}3h[4:3],
{2}2,2,
{2}1,1,
{1}8h[4:3],
{1}7h[4:3],
{2}8,8,
{1}1b,
{1}3-6[2:1],
{1},
{1}5-8[2:1],
{1},
{4}2,2,2,2,
{4}3,3,3,3,
{4}1,1,1,1,
{4}8,8,7,7,
{1}6h[2:1],
{4}8,8,1,1,
{4}2,2,3,3,
{1}4h[2:1],
{1}5h[2:1],
{1}6-1[2:1],
{1},
{2}1,3,
{2}5,7h[2:1],
{2},8h[4:5],
{1},
{1}8b/1b,
{1}2-7[2:1],
{1},
{1}6h[4:3],
{2}8,1,
{1}7b/2b,
{1},
{1},
E
&inote_3=(146){1},
{4}2,2,2h[4:1],,
{4}7,7h[8:3],,,
{8}1,1,,,,,8,8,
{8},,,,1,1,,,
{4}3,5,4,6,
{4}7,1,8b,,
{8}1,1,,,,,8,8,
{8},,,,1,1,,,
{4}2,1,8,7,
{1}1b/8b,
{4}1,1,3,3,
{4}5,5,7,7,
{1}1-4[2:1],
{1},
{4}4,4,6,6,
{4}8,8,2,2,
{1}8h[4:3],
{1}1h[4:3],
{4}3,1,7,,
{4}6,8,2,,
{1}1h[4:3]/8h[4:3],
{8}1/2,,,1/2,,,,,
{8}8/7,,,7/8,,,,,
{8}8/1,,,1b/8b,,,,,
{4}3,2,1,8,
{4}6,7,8,1,
{4}4/5,3/6,2h[4:1]/7h[4:1],,
{1}1-5[4:1]/8-4[4:1],
{4}2,1,8,7,
{4}6,5,4,3,
{1}1h[1:1]/2h[1:1],
{1},
{8}8,8,,,,,6,6,
{8},,,,4,4,,,
{8}7,7,,,,,1,1b,
{1},
{8}8,8,8,,6,6,6,,
{8}4,4,4,,2,2,2,,
{8}1,1,1,,2,2,2,,
{8}1,1,1,,8,8,8,,
{8}7,7,7,,6,6,6,,
{8}8,8,8,,1,1,1,,
{8}2,2,2,,3,3,3,,
{1}4-8[4:1],
{1}6-2[4:1],
{1}1h[2:3],
{1},
{4}1/2,1/2,2/3,2/3,
{4}3/4,3/4,4h[2:1]/5h[2:1],,
{2},1h[4:5]/8h[4:5],
{1},
{8}8b/1b,,,,,,1,1,
{8},,,,7,7,,,
{8}4,4,,,,,2,2,
{8},,,,6,6,,,
{4}7,8,1h[8:3],,
{8}8b/1b,8b/1b,,,,,,,
{1},
{1},
{1},
E
&inote_4=(146){1},
{16}8,7,,8,7,,8,,1/2,,,,7/8,,,,
{16}1,2,,1,2,,1,,,,3/8,,,,,,
{8}7/6,7,5,,4,,3/2,2,
{8}4,,5,,6/7,7,5,,
{8}2<5[8:1],2,,,7>4[8:1],7,,,
{4}2-5[8:1],7-4[8:1],1-5[8:1],,
{8}7/6,6,8,,1,,2/3,3,
{8}1,,8,,7/6,6,8,,
{8}1-5[8:1],1,,,8-4[8:1],8,,,
{8}6b,2b,,,,,,,
{8}2,,3,,4,,5,4,
{8}6,,7,,8,,1-4[2:1],8-5[2:1],
{1},
{8},,,,,,2,3,
{8}1,,8,,7,,6,7,
{8}5,,4,,3,,2,3,
{2}2<7[4:1],4<7[4:1],
{4}3-7[4:1],,,6>3[2:1]/8>3[2:1],
{4},,,2<7[2:1]/4<7[2:1],
{4},,,1<6[2:1]/5>2[2:1],
{1},
{8}3h[4:1]/8h[4:1],,,1-5[8:1]/2-6[8:1],,,,,
{8}1/6,1/6,,7-3[8:1]/8-4[8:1],,,,,
{8}3b/6b,7b/2b,8b/1b,2-6[8:1]/7-3[8:1],,,,,
{4}4,3,2,1-5[8:1],
{4},6,7,8-4[8:1],
{4},2-5[8:1],,6-1[8:1],
{4}3-8[8:1],,,4-8[2:1]/8<5[2:1],
{4},,,1>4[2:1]/5-1[2:1],
{4},,,4-8[2:1]/5-1[2:1],
{1},
{8}2b/7b,8b/5b,,,,,,,
{8}2/4,7/5,6,,6,,5/7,2/4,
{8}3,,3,,2/4,7/5,6,,
{8}5/7,2/4,3,,3,,4/2,7/5,
{8}6b/3b,4b/5b,,,,,,,
{8}4,3,3,2,2,1,1,8,
{8}5,6,6,7,7,8>3[8:1],,4,
{1}4-8[4:1],
{8}7,7,8,8,1,1,2<7[4:1],2>5[4:1],
{1},
{8}2,2,3,3,7,7,6,6,
{2}5-1[8:1],8-4[8:1],
{8}1,1,2,2,8,8,7,7,
{8}2,2,6/2,6,6/3,3,5/3,5,
{1}4-1[4:5]/5-8[4:5],
{1},
{4}2/3h[4:1],6h[2:1],7,3,
{2}2-5[8:1]/7-4[8:1],1b/8b,
{1}2>5[4:5],
{4},,,2>5[16:1],
{8},,,,6,,7/5,4/2,
{8}3,,3,,1/4,7/5,6,,
{8}2>5[8:1],2,,,7<4[8:1],7,,,
{16}1,2,1,,8,1,8,,7,8,7,,,,,,
{16}1,8,2,,7,3,6,,4,5,4,,,,3/7,,
{8}1b/5b,7b/3b,,,,,,,
{1},
{1},
{1},
E
&inote_6=(146){1},
{16}2/5,,3,4,2,5,2,,2>5[8:1]/5-8[8:1],,,,2/5,,,,
1,7/1,,6,5/6,,
{384}4-1[8:1]*-1[8:1],7<8[8:3],,,,,,,,,,,,,,,,,,,,,,,,,,,,,,,,,,,,,,,,,,,,,,,
{16},,4b,,,,,,
4h[8:4],,,,,,,,,,,,5>3[8:1]/6,,5/6,,
7,,,,8h[8:1],,1h[4:1],,8,,7,,6,,,,2/5,,2/5,,3,4,2,,
4/7,,4/7,,6,5,7,,8h[8:1]/4,3,2,,
1h[8:1]/7,6,5,,4h[8:1]/1,2,3-1[12:1],,4-8[8:1],,,,,,,,1,,
1h[8:1],,8h[4:1],,1,,2,,3,,4,,4h[8:1],,7h[4:1],,4,,3,,2,,
1h[4:1],,,,5,,2/5,,3,4,2,,4/7,,4/7,,6,5,7,,
4b/8b-5[8:1],,2b/6b>7[2:1],,,,,,,,,,,,,,
4,,4h[8:2],,,,6,,5/6,,7,,1-4[8:1]/8,,2,,8,,,,
6,,5/7,,4,,3/5,,2,,1/4,,1h[2:1]/4>5[4:3],,,,,,,,,,,,,,,,
2h[4:1],,,,4-6[8:1],,4-2[8:1],,,,,,
7,,7,,1,,2h[4:1],,,,1,,2,,3/4,,5,,4-1[8:1],,6,,,,
7,,6/8,,1,,2/4,,5,,4/6,,5<4[4:3]/7h[4:3],,,,,,,,,,,,,,,,
5-2[8:1]*-8[8:1],,,,,,,,,,,,
1/2,,3,,4/5h[4:1],,,,6>3[8:1],,,,7h[4:1],,,,1,,
1-5[8:1],,5,,,6,,,7-4[8:1],,4,,,,3<8[2:1],,2,,2h[4:3],,,,,,,,,,,,
1-5[8:1],,,,1/4>1[8:1],,,,4,,7h[4:1],,,,1,,1h[8:1]/7,,,,
2/6-3[8:1],,3<6[8:1]/5,,,,2h[8:3],,,,,,
6,,7,,5,,1/7,,4,,2/8h[8:3],,,,,,1,,2,,
3h[8:1]/6,,,,4h[8:1],,,,5h[8:1],,,,6h[8:1],,,,
7h[8:3],,,,,,5,,6,,7,,8-3[4:1],,1,,3<6[4:1]*<6[4:1],,,,
6<6[2:1]*<6[2:1],,,,1h[4:1],,,,,,8,8,8-4[8:1],,,,,,,,,,,,
5,,6,,2h[8:1]/7,,,,8h[8:1],,,,6h[8:1],,,,4h[8:1],,,,
2h[8:3],,,,,,4,,5,,6,,7-2[8:1],,8,,1<3[2:1],,,,,,,,,,,,2h[4:1],,,,
1,,3V52[4:1]/8z4[4:1],,,,,,,,,,1,,8,,2/7h[8:1],,2,,
3,4,2,,6-3[8:1],5,7-2[8:1],,,,,,
4,4,1,,5-2[8:1],5,8-5[8:1],,,,,,
1-5[8:1],,1-3[12:1],,,,,,
6,5,7,,3-6[8:1],4,2-7[8:1],,,,,,
4b,,
{24}6b/1b,5,4,3,2,1,8,7,6,
{16}5-1[8:1],,,,,,,,
2,1,2,8,2,1,2,8,3,7,
4,6,8,6,5,6,1,6,3,4,
3,1,3,4,3,8-5[8:1],2,,
1v6[8:1],,2,,1,,5,,7,,4/8,,
3/7,,6,4,8,2,5,3,7-4[8:1],,6,,1-3[12:1]/7,,2,,
1/6-1[8:1],,5,,3/6,,3>5[8:3],,3h[2:1],,,,,,,,,,
4,,2/5,,4,3,5-7[12:1],,4,,3>1[12:1]/5,,4,,
3/7<4[8:1],,6,,1/7,,1<4[8:2],,1h[8:3],,,,,,,,
1,,2,,3,4,2,5,1>3[10:1],,2,,1/6<1[8:1],,7,,4/6,,,,
4,,5,5,1-6[8:1],,,,1/4-1[8:1],,,,
4/5v2[8:1],,,,3/5,,,,4/8,,7,5,6,
3,4,2,8,1,7,2,6,3,5,4,6,5,8,1,4,3,8,1,
2b>4[12:1]/7b-4[8:1],,,,,,,,
1b-5[10:1]/5b,,,,1b/7b-2[10:1],,,,
4b-1[10:1]*-1[10:1]/7b,,,,4b/6b-3[10:1]*-3[10:1],,,,
1b>4[10:1]*<6[10:1]/6b,,,,1b-5[10:1],,,,1b/4h[1:1],,,,,,,,
5,,,,5,,,,
{32}5b,6,7,8,1,2,3,4,
5,6,7,8,1,2,3,4,
5,6,7,8,1,2,3,4,
5,6,7,8,1,2,3,4,
5,6,7,8,1,2,3,4,
{16}5-8[10:1]*>2[10:1],,,,5b,,,,,,,,1h[8:1],,,,
8>2[8:1]/7,,8/7,,
6,,,,7h[8:1],,5h[4:1],,7,,8<5[8:1],,1,,,,2,,2/5,,3,4,2,,
4/7,,4/7,,6,5,7,,8h[8:1]/4,3,2,,
1h[8:1]/7,6,5,,4h[8:1]/1,2,3>1[12:1],,4,,,,
{32}8b,7,6,5,,,,,
1b,2,3,4q5[6:1],,,,,8b/4b,7,6,5,
{16},,,,
1b,,3b/7b,,
{384}1b-5[8:1]*-5[8:1],5b>5[8:5],,,,,,,,,,,,,,,,,,,,,,,,,,,,,,,,,,,,,,,,,,,,,,,
{8},,,,,,
{1},,,,,,,,,,,,
E
