&title=Red Eyes
&artist=Persona
&first=0
&des=KuSA
&lv_5=12+
&inote_5=(134)
{1},
{16}
5/6,,5/6,,7-2[8:1]/4,,1,1,7,3,3-8[8:1],,1,,,,
4,,5h[16:3]/1,,{48}2-6[8:1],3,4,{16},,,2,8,8,,4,4,5,,
4/3,,4/3,,2-7[8:1]/5,,8,8,2,6,6-1[8:1],,8,,,,
5,,4h[16:6]/8,,{48}7,6,5h[24:5],{16},,,,,
4,4,4,4,4,4,4b-1[8:1],,5-8[8:1],,4,,5,,
1-4[8:1],,8-5[8:1],,1,,8,,3-6[8:1],,7-2[8:1],,3,,7,,6>3[4:1],,
2,,1,,8,,7-3[8:1],,,,7h[4:1],,,,2-6[8:1],,,,2h[4:1],,,,
7-3[8:1],,,,7<4[8:1],,,,2,,2,,5,5,5,5,5b-2[8:1],,,,5-8[8:1],,,,1h[4:1],,,,
8<5[8:1],,8>3[8:1],,,,,,4-1[8:1],,,5,4,,4,,
3/2<7[8:1],,,,2>5[8:1]/6,,,,1<6[8:1],,,,1h[4:1],,,,
5,,5,,8/5,,7,6,,6,7,,8/5,,5/8,,3/6,,,,
4-7[8:1],,,,4-1[8:1],,,,8h[4:1],,,,
1>4[8:1],,1<6[8:1],,,,,,5-8[8:1],,,4,5,,5,,7/6,,8,,
1-6[8:1]/2>5[8:1],,,,1/2,,,,7-4[8:1]/8>3[8:1],,,,7/8,,,,
3,4,3,4,2/5,,6,5,7/4,,5/6,,2/7,2/7,1/8,,
8b-5[2:1],,,,1,,2,,3,,1,,3<6[4:1],,,,
1-4[2:1],,,,,,7,,6,,7,,6>3[4:1],,,,
8-5[2:1],,,,,,2,,3,,1,,3<6[4:1],,,,
7>2[4:3],,,,,,,,,,,,6-2[8:1],,6,,6,,4,4h[16:3],,,5,,3<6[8:1]/4-8[8:1],,,,3/4,,,,
1/7,,2,2/1,,4,3/5h[8:1],,{24}3,4,5,{16}6,,3-7[8:1]/8,,3/8,,3,,
5,5h[16:3],,,4h[8:1],,{24}6,5,4,{16}3,,6<1[8:1]/2,,6/2,,6,,4,4h[16:3],,,5h[8:1],,
{24}3,4,5,{16}6,,3-8[8:1]/8,,8/3,,3,,6,6h[16:3],,,5h[8:1],,{24}7,6,5,
{16}4/8-5[8:1],,2-7[8:1]/6,,8,,2,,5,5h[16:3],,,4h[8:1],,{24}6,5,4,3,,,3,4,5,
{16}6,,8b,1,8,,8,7,8,,5/6,,4,,2/5,,3,,5,4,5,,3,4,3,5,5/4,,2/3,,1h[8:1],,,,
1,8,1,,1,2,1,,3/4,,5,,7/4,,6,,1,2,3,,1,8,7,4,4/5,,6/7,,8b,,,,
1-4[8:1],,2,,3/1,,,,1-4[8:1],,2,,3/1,,,,8-5[8:1],,7,,6/8,,,8,8-5[8:1],,7,,6/8,,,,
1/8,,2-5[8:1],,3,,4h[4:1],,,,2-5[8:1],,3,,4h[4:1],,,,2-5[8:1],,3,,4-8[4:1],,,,
4h[4:1],,,,,,7b<4[8:1],,8>3[8:1],,7,,8,,7-4[8:1],,8-3[8:1],,7,,8,,
8<5[11:3],,,6>3[11:3],,,4>1[4:1],,,,
1-5[8:1],,,,4,,4,,,4,5/3,,2,,4/5,,5,,6/4,,7,,1/8,,2,,4/1,,5/8,,6-3[8:1]/7-2[8:1],,,,6/7,,,,{48}1b/5b,2/6,3/7,4/8,1h[24:10]/5h[24:10],,{16},,,,,,,,
4<7[8:1],,4,,4-8[8:1]/3,,3,,4>1[8:1]/5,,5,,7,6,5,,
5>2[8:1],,5,,5-1[8:1]/6,,6,,5<8[8:1]/4,,4,,2,3,4,,
4/8-5[8:1],,8,,3-8[8:1],,3,,6>3[8:1],,6,,2,,2,,1,1,8,8,7,7,
6b-2[8:1],,,,6h[4:1],,,,3-7[8:1],,,,3h[4:1],,,,
6-2[8:1],,,,6h[4:1],,,,3<6[8:1],,,,3h[4:1],,,,
5-1[8:1],,,,5h[4:1],,,,4-8[8:1],,,,4h[4:1],,,,
5-1[8:1],,,,5<8[8:1],,,,2,,2,,1,1,1,1,1b,,
2,,3/4,,5/4,,6,5,,5,7-2[8:1],,8,,1,,3,,4,,5/6,,
6,4,5,3,4-8[8:1],,6/5,,1,,2,,3/4,,5/4,,6,5,,5,7-2[8:1],,8,,1,,
3,3h[16:3],,4,4h[16:3],,5,5h[16:3],,6,6-2[8:1],,1,,
8,,7,,6/5,,4/5,,3,4,,4,2-7[8:1],,1,,8,,6,,5,,4/3,,
3,5,4,6,5-1[8:1],,3/4,,8,,7,,6/5,,4/5,,3,4,,4,2-7[8:1],,1,,8,,
6,,5/4,,3,5,7,1,3,5,{32}7,8,1,2,3,4,5,6,{8}
7b>2[4:1],,2>5[4:1],,5<8[4:1],,8-5[4:1],8-3[4:1],,,,
{16},5,4,,3,,4/1-5[8:1],,,,8h[4:1],,,,6>3[8:1],,,,1<6[8:1],,,,4,,4>1[8:1],,,,
7,,7<4[8:1],,,1,8,,8,,8/5-1[1:1],,,,1b,,,,,,,,,,,,,,,,5<8[8:6],,,,,,,,,,,,,,,,5>2[8:6],,,,,,,,,,,,,,,,5-8[8:1],,,,,,,,5-2[8:1],,,,,,,
{32}8,7,6qq3[1:1]*>3[2:1],5,
