&title=Love & Justice
&artist=BACO
&first=0.15
&des=ナナミ[GOD]@発狂皆伝
&lv_5=14+
&inote_5=(200)
{1},
{4}5h[4:5],,3,,4,4,3h[4:7]/6,,,
{8}7,,,6,,,5,,,4>1[8:1],,,,,
{4}5h[4:5],,1,,2,2,3h[4:1]/6,,
{8}5<7[16:1]/4,,2,,4>2[16:1]/5,,7,,18,2,18,7,18,27,
{16}3,6,2,7,
{8}1b-5[8:1],1,7p3[8:1],7,2q6[8:1],2,8-4[8:1],8,1>4[8:1],1,8,7qq4[4:1],,,,,
{8}35,2,36,2,37,2,38,2,
{16}3,4,2,5,1,6,8,7,1<6[8:1],,2,,3,,4,,
{8}8-4[8:1],8,2q6[8:1],2,7p3[8:1],7,1-5[8:1],1,8<5[8:1],8,1,2pp5[4:1],,,,,
{8}64,7,63,7,62,7,61,7,
{16}1,8,1,8,1,8,1,8,2,7,4,5,2,7,3,6,
{8}1b,1-5[8:1],,1h[8:3],,,,,2-6[8:1],,8,7v4[8:1],,3h[8:2],,5,5<8[8:1],,3,2-7[8:2],,7V13[8:2],,4,5,6,7,8h[8:4],,4,3,2,
{8}1b/8b,1-5[8:1],,1h[8:3],,,,,7-3[8:1],,1,2v5[8:1],,6h[8:2],,4>5[8:3],,,,,8,7,6,5,4b-7[8:1],,4b/3b,1b-5[8:1],,1b/8b,,,
{16}3,5,3,6,4,6,3,4,3,6,5,6,4,5,3,4,3,4,5,6,2,3,4,5,1,2,3,4,8,1,2,3,4,6,4,6,3,5,3,5,2,3,6,5,3,4,7,6,2,1,8,7,1,8,7,6,8,7,6,5,7,6,5,4,
{16}2,1,2,1,3,4,3,4,8,7,8,7,5,6,5,6,4,5,3,6,4,5,2,7,4,5,3,6,4,5,2,7,
{16}1b,8,1,8,1,8,1,8,2b,8,1,8,1,8,2b/7b,,,,
{32}2b/7b,36,45,,,,,,1b/8b,27,36,,,,,,
{16}2-5[8:1],,7-4[8:1],,2,,7,,
{8}2-6[8:1],,2/8-3[8:1]*-5[8:1],,8-4[8:1],,8>3[8:1],,58,6,7h[8:2],,2-6[8:1],6V41[8:2],7,8-5[8:1],,8-3[8:1],,8,6-3[8:1],,6/7-2[8:1],,7/1w5[8:1],,1,,
{16}4,5,3,6,2,7,
{8}1<6[8:1],,1/3,2-6[8:1],,2/8-4[8:1],,8/5v2[8:1],,65,7,8qq5[4:1],,3,2,1,
{8}8>6[8:3],,,6V41[8:2],,,1,,8b,1b/7b,2b/6b,3b/5b,,46,37,28,
{16}1,8,1,8,2,1,2,1,3,4,3,4,1,8,1,8,2,7,2,7,3,6,3,6,4,5,3,6,4,5,3,6,2,1,3,7,8,6,2,4,3,7,5,6,4,5,3,6,2,1,2,1,3,8,3,8,4,7,4,7,5,6,5,6,
{16}4,7,3,6,2,5,1,4,
{32}1b-5[8:1],2,3,4,8b-4[8:1],7,6,5,1b,,,,8b,,,,
{16}1,2,3,5,6,7,3,2,
{32}1b-5[8:1]/8b-4[8:1],27,36,45,,,,,1b/8b,,,,,,,,
{16}3b,5,4,5,4,5,4,5,2b,5,4,5,4,5,
{32}2b,3,4,5,6,7,8,1,2,3,4,5,6,7,8,1,2,3,4,5,8b,7h,6h,5h,4h,3h,2h,1h,8b,7h,6h,5h,4h,3h,2h,1h,
{4}8b/4b>5[4:13],,,,,,,,,,,,,,,,5b<4[4:7],,,,,,,,
{4}8<6[16:1],3,1>3[16:1],6,
{8}8b-6[16:1]/1b,2,3b,,1b-3[16:1]/8b,7,6b,,
{4}4/8bV64[4:2],,,,1-4[4:2]/6-4[4:2],,,,8-5[8:1]/1b,,1b-4[8:1]/8b,,8b-5[8:1]/1b,8b/1b,1b-4[8:1]/8b,1b/8b,
{8}8>3[8:1],,86,7-3[8:1],,7/1-5[8:1],,1/4v7[8:1],,34,2,1pp4[4:1],,6,7,8,
{8}1<3[8:3],,,3V58[8:2],,,8,,1b,2b/8b,3b/7b,4b/6b,,35,26,17,
{16}1,8,1,8,2,7,2,7,4,5,3,6,4,5,2,7,1,8,2,7,3,6,3,6,4,5,3,6,4,5,3,6,2,1,3,7,8,6,2,4,3,7,5,6,4,5,3,6,2,1,3,8,4,7,5,6,4,5,3,4,2,5,1,6,
{16}8,7,1,8,2,7,3,6,
{32}1b-5[8:1],2,3,4,8b-4[8:1],7,6,5,1b,,,,8b,,,,
{16}1,2,3,5,6,7,3,2,
{32}1b-5[8:1]/8b-4[8:1],27,36,45,,,,,1b/8b,,,,,,,,
{16}3b,5,4,5,4,5,4,5,2b,5,4,5,4,5,
{32}2b,3,4,5,6,7,8,1,2,3,4,5,6,7,8,1,2,3,4,5,8b,7h,6h,5h,4h,3h,2h,1h,8b,7h,6h,5h,4h,3h,2h,1h,
{4}8b<1[4:7]/4b,,,,7b,,,,5b,,1b,,4b/5b,2b/7b,
{16}1,1,1,1,
{32}1,2,3,4,5,6,7,8,
{8}1b-5[8:1],1,7p3[8:1],7,2q6[8:1],2,8-4[8:1],8,1>4[8:1],1,8,7qq4[4:1],,,,,
{8}35,2,36,2,37,2,38,2,
{16}3,4,2,5,1,6,8,7,1<6[8:1],,2,,3,,4,,
{8}8-4[8:1],8,2q6[8:1],2,7p3[8:1],7,1-5[8:1],1,8<5[8:1],8,1,2pp5[4:1],,,,,
{8}64,7,63,7,62,7,61,7,
{16}1,8,1,8,1,8,1,8,2,7,4,5,2,7,3,6,
{16}1b,8,1,8,2,5,2,5,4,7,4,7,2,8,2,8,1,7,2,6,3,5,4,6,3,7,2,8,1,8,2,7,
{16}4,5,4,5,3,8,3,8,1,6,1,6,3,5,3,5,1-5[8:1],,1,,1,,,,4>1[8:1],,7p3[8:1],,4,,7,,
{16}8,1,2,3,8,7,6,5,2,4,2,4,3,5,3,5,2,4,1,7,8,6,4,5,2,1,3,8,4,7,5,6,
{16}2b,8,1b,1,2b,8,1b,1,
{32}2b,3,4,5,8,7,6,5,1b,2,3,4,7b,6,5,4,
{8}1h[8:1],7b,62,53,,28,37,46,5b,
