&title=金达莱花
&artist=Dancecube
&first=0
&lv_5=14
&des=H2O2ange des_5=H2O2ange
&inote_5=(140)
{16},,,,,,,,,,,,,,,,,,,,,,,,,{8}18,18,,,,,,,12,12,,,,,,,87,87,,,34,34,,,56,56,4,3,4,3,{16}8,1,8,1,{8}2h[8:3]/7h[8:3],,,,{16}5,4,5,4,5,4,5,,{8}16,16,38,38,47,25,17,25,68,24,13,57,58,14,38,46,68,45,13,45,35,68,64,13,68,57,13,24,27,56,17,24,68,13,57,24,18,45,15,57,54,47,13,18,18,68,24,45,36,46,36,16,38,36,36,58,E3/E7,14,E3/E7,18,57,24,18,15,48,18,45,15,18,48,45,58,15,14,48,57,18,15,45,17,27,18,27,45,18,E3/E7,45,48,68,46,16,48,2h[8:7]/7h[8:7],,,,,,,,15,E3/E7,48,E3/E7,1h[4:1]b,,7h[8:1]b,6h[8:1]b,5h[8:1]b,4h[8:4]b,,1,,1h[4:1]b,7h[8:1]b,6h[8:1]b,5h[8:1]b,4,,18,,18,13,24,68,24,,1,,1h[8:1]b,8h[8:1]b,7,{32}1x,2,1,2,1x,2,2,3,3x,4,3,4,3x,4,3,,
{8}1h[4:1]b,,7h[8:1]b,6h[8:1]b,5h[8:1]b,4h[8:4]b,,1,,1h[4:1]b,7h[8:1]b,6h[8:1]b,5h[8:1]b,4,,18,,18,13,24,68,24,,1,,1h[8:1]b,8h[8:1]b,7,{32}1x,2,1,2,1x,2,2,3,3x,4,3,4,3x,4,3,,
{8}
48,15,28,17,46,35,18,35,
68,24,13,57,58,14,28,46,
68,45,13,45,35,68,64,13,
68,57,13,24,27,56,17,24,
68,13,57,24,18,45,15,57,
54,47,13,18,18,68,24,45,
36,46,36,26,37,36,46,36,58,
E3/E7,14,E3/E7,18,57,24,18,15,
48,18,45,15,18,48,45,58,
15,14,48,57,18,15,45,17,
27,18,27,45,18,E3/E7,45,48,
68,46,16,48,15,13,35,38,
15,13,38,48,58,68,24,14,
15,16,68,24,57,47,48,14,
31,68,58,15,52,42,31,24,
18,E3/8,2/E7,4h[8:7]/5h[8:7],,,,,,,,7,8,1,2,45,45,,,,,,,18,18,,,,,,,47,25,,,,,,,18,57,18,24,18,57,18,24,
65,45,76,65,87,76,18,87,34,
45,23,34,12,23,81,12,{32}
5x,4,5,4,5,4,5,4,
5x,4,5,4,5,4,5,4,
5x,4,5,4,5,4,5,4,
5x,4,5,4,5,4,5,4,
5x,4,5,4,5,4,5,4,
5x,4,5,4,5,4,5,4,
{20}4bx/5bx,4b/5b,4b/5b,4b/5b,4b/5b,4bx/5bx,4b/5b,4b/5b,4b/5b,4b/5b,
{8}16,16,38,38,47,25,17,25,68,24,13,57,58,14,38,46,68,45,13,45,35,68,64,13,68,57,13,24,27,56,17,24,68,13,57,24,18,45,15,57,54,47,13,18,18,68,24,45,36,46,36,16,38,36,36,58,E3/E7,14,E3/E7,18,57,24,18,15,48,18,45,15,18,48,45,58,15,14,48,57,18,15,45,17,27,18,27,45,18,E3/E7,45,48,68,46,18,15,48,18,45,15,18,48,45,58,15,14,48,57,18,15,45,E7/1,B6/B7/B2/B3,18,E7/E3,45,18,E7/E3,45,48,68,46,17,48,68,24,45,18,2h[8:3]/7h[8:3],,,,15,E3/E7,48,E3/E7,1h[4:1]b,,7h[8:1]b,6h[8:1]b,5h[8:1]b,4h[8:4]b,,1,,1h[4:1]b,7h[8:1]b,6h[8:1]b,5h[8:1]b,4,,18,,18,13,24,68,24,,1,,1h[8:1]b,8h[8:1]b,7,{32}1x,2,1,2,1x,2,2,3,3x,4,3,4,3x,4,3,,
{8}1h[4:1]b,,7h[8:1]b,6h[8:1]b,5h[8:1]b,4h[8:4]b,,1,,1h[4:1]b,7h[8:1]b,6h[8:1]b,5h[8:1]b,4,,18,,18,13,24,68,24,,1,,1h[8:1]b,8h[8:1]b,7,{32}1x,2,1,2,1x,2,2,3,3x,4,3,4,3x,4,3,,
