&title=キティ
&artist=ツミキ/初音ミク
&first=0
&des_1=HF_MeLaN
&des_2=HF_MeLaN
&des_3=HF_MeLaN
&des_4=HF_MeLaN
&des_5=HF_MeLaN
&lv_5=13+
&des_6=HF_MeLaN
&lv_6=13+
&des_7=HF_MeLaN
&des=HF_MeLaN
&inote_5=(145)
{4},,,,,
{16}
4,5h[8:1],,3,,2h[8:1],,4,3,,,,3,,,
6,5,7h[8:1],,4,5,3h[8:1],,5,4,,,,4,,
6,,5,,4,,3h[4:2],,,,E8/B8/E1,,,,B5/E5/E6,,,,
7-5-8[16:3],,3,,2,,1>4[8:1]*<6[8:1],,,,,,,,,,
6h[8:1],5,,3,4,2h[8:1],,8-4[8:1],1,,,,1,,,
2,5,3h[8:1],,6,4,7h[8:1],,5qq5[4:1]*pp5[4:1],,,,,,,,,,,
3h[8:1],,4,,2,,8x,1h[8:1],,7h[8:1],,5,6,,3x,4h[8:1],,2h[8:1],,8,1,,
2b-4[12:1]/7b-5[12:1],,,,,,,6h[8:1],3h,3h,4,2-4-6b[8:1],8,1,7,
{64}2b,E3f,,,,,,,,,,,,,,,
{16}
,7,5,6,5,7h[8:1],,2,5,3,6,4,5x-7[8:1],,5x-3[8:1],,5x-1b[8:1],,,,,,,2,,
8/3-1[8:1],,4-6<7b[8:1],,3x,,4x,,1,8,1,8,1h[8:1],,
7,2,6,3,5,4x-2[8:1],,4x-6[8:1],,4x-8b[8:1],,,,,,,
5,,1/7-4b[8:1],,3-8[8:1]/5,,7x/1,,3x,,
{16}6,5,7,5,6h[8:1],,3,4,2,8,1,7x-5[8:1],,7x-1[8:1],,7x-3b[8:1],,,,,,,
2,,4/5-3>2[8:1],,6-8b[8:1],,5x,,6x,,2,1,2,1,2h[8:1],,
6,5,7,3,4,2x-5[8:1],,2x-7b[8:1],,2x,,,,,2,8,4,6,1-5b[8:1],7,3,5,
1b<6[8:1]*>4[8:1],,,,1,,,,7,2,5,4,6,3,5,4>5[4:2],,6,6h[8:5],
{4},,
{16}
,,,3,4,2,,5,4,6,,1,8,2-6[8:1],7,3,,8<5[8:1]/2,,7,,18,,2,,3h[8:1]/4h[8:1],,,
5h[8:1]/2,,,3,,4<7[8:1]*>1[8:1],,,,4b-8[8:1],,,,4,,,,
2,2,4,4,3-1[8:1],6,4,5,,8v2-4[4:1],7h[16:5],
{4},
{16}
,,,6h[8:1],,2,4,,1h[8:1]/5h[8:1],,,26,,7,5,,4h[8:1]/8h[8:1],,,37,,8,1,8,
2bx/7bx,,2bxpp3b[16:3]/7bxqq6b[16:3],,,,,,,,,
81,,2,1,3,4,2bh[8:1],,1,1,2-4-6[16:2],4,3,1,2,,,,
7,8,6,5,7h[8:1],,3,1,2-4-6[16:2],4,3,1,2,,,,
8,1,6,5,7xh[8:1],,1,1h[16:1],,8,2,7,3xh[8:1],,8,8h[16:1],,
2,2,8,5,6,3,4<7[8:1],1,8>3b[12:1],2,4x,,8x,,,
8,1,6,5,7bh[8:1],,4,4,6-8-2[8:1],5,7,8,6,,,,
3,4,2,5,1hx[8:1],,7,8,6-8-2-4[16:3],5,7,8,6,,,,,,
4,5,6h[8:1]/3h[8:1],,,5h[8:1]/7h[8:1],,,48,,1h[8:1]/2h[8:1],,,3h[8:1]/4h[8:1],,,25,,
3b,4,1,6b,5,8,3h[8:1],,4-8b[8:1],,,,,,,,
{4}
2p7[4:3],,
{16}
C,,,E1,,,,,
{4}
6p3[4:3],,
{16}
C,,,E1,,,,,
{4}
2>7[4:2],
{8}
8,8h[8:3],,,,,8-4-6[8:3]*-4-2[8:3],,,,,,17,,
{16}
2h[8:1]/8h[8:1],,,,4h[8:1]/2h[8:1],,,,3h[8:1]/5,,,6h[8:1]/4,,,57,,3/5h[8:1],,2,,4h[8:1]/6,,7,,
3h[8:1]/5h[8:1],,,4h[8:1]/6h[8:1],,,57,,
{16}
1b/8b,,6,5,7bh[8:1],,3,4,2bh[8:1],,8,,1bv3V14b[8:3]/7bv5V74[8:3],,35,,1b/7b,,,,,,,,
{16}
56,,18,,3v8b[12:1]/7-4b[12:1],,,,
{64}
3b/7b-1-3[4:1],Cf,,,,,,,,,,,,,,,
{8}
5-8[8:1],6,5-2-4[16:3],,5/7-4-6-1[4:1],6,7,3q5[4:1],2,3,,
7,8>3[8:1],1,8/5x<8[8:1],,5/2x>5[8:1],,2/7x>2[8:1],,7/5x<4b[4:1],,
{32}
5b/1b,D6f,D7,D8,D1,D2,D3,D4,
{8}
,,48,
{16}
6,5,7h[8:1],,1,1,
{8}
2-4[8:1]/8-4[8:1],,2-6[8:1]/8,
{16}
,,5V31[8:1]/2,,,,57,,
{8}
6-8[8:1],,4/6>3[8:1],,1h[8:1]/6,,
28,3/7-5[12:1],46,1x/7,
{16}
3-1[12:1],4,2,,3x/7,,6-4[12:1],8,7,,16,,3,,
{8}
8-5[8:1]/2,6/4-1b[12:1],28,
{64}
4b,E4f,,,,,,,
{32}
7,6,5,4,3,2,1,8,
{8}
7-2[12:1]/3-6[12:1],15,
7b-5-3v2b[4:1]/3b,,1V75[16:3],8,1,,2-5-3-1[4:1],3,28,7qq8[4:1],6,37,,
2,1<6[8:1],8,1/4x>1[8:1],,4/7x<4[8:1],,7/2x<7[8:1],,2/4x>5b[4:1],,
{32}
4b/8b,D4f,D3,D2,D1,D8,D7,D6,
{8}
,7,5/6h[8:1],8,2h[8:1]/4-8[8:1],1,4/7<4[8:1],,71,,
{8}
1-6[8:1]/2v5[8:1],,12,,4/7-3[8:1],8,7/1-4[8:1]*-6[8:1],,1-7V53[4:1],,2,2h[8:1],,
12,45,78,26,45,18,2/6h[8:1],
{16}
4,4,5,,36,,5,4,6,3,7,2,8-4-2-5b[4:5],,1b/7bh[8:9],,,,,,
{4},,,,,
{16}
6bx,6bx,6bx,6bx,6bx,6bx,6bx,6bx,
6xbh[8:1],,4,5,3,4h[8:1],,2,2h[8:1],,8,8,1,7,2,6h[8:1],,
5,5,7,7,3,4,2,5,4,6,3,7,4,5h[8:1],,
2h[8:1],,4,3,5,4h[8:1],,7,7h[8:1],,1,8,2,1h[8:1],,3h[8:1],,
4,2,6,5,7,1,8,2,4,3,5,1x,1xh[8:1],,
4,3bh[8:1],,5,4,6,5h[8:1],,7,7h[8:1],,1,1,8,2h[8:1],,4h[8:1],,,
{24}3,5,4,6h[8:1],,,
{16}5,7,4,5,3,6,2,5,4h[8:1],,
7bh[8:1],,5,6,3,4h[8:1],,2,2h[8:1],,7,1,6,8h[8:1],,7h[8:1],,
5,6,1,4,2,8,3,7,1,8>3[12:1],2,7h[64:7],,
{32}
A6,A5,A4,
,,,,,,
E
&inote_6=(145)
{4},,,,,
{16}
2,5,,6/4-2v8[16:4],,37,,6h[16:5],,,,,,,7,,1,5,,6h[8:1]/2-8v5[4:1],,3,,4h[16:5],,
,,,,,3,,4/2-4-6[4:1],,1,,8,,7,,8h[4:1],,7,,5h[4:1],,6,,7-4[8:1],,4-6-8-2[4:1],,7,,
2<6[16:4],,,,3h[4:1],,,,,,
4,2h[8:1],,5-3v1[4:1],3,6,,7h[16:5]/5,,,,,,,6,,35,2h[8:1],,8-2-4[8:1],1,7,,
8/6qq6[4:1]*pp6[4:1],,,,,,,,,,,2h[8:1],,4h[8:1],,3,,
17,6h[8:1],,3,5,4,6,,28,3h[8:1],,6,4-7-1-5b[4:1],5,3,,4b/2bh[4:1],,,,,,,
3,4,4,2,2-4-6b[8:1],7,1,8,
{64}2b,E3f,,,,,,,,,,,,,,,
{16}
,7,8,6,5,7h[8:1],,3,3,5-3[12:1],4,6-8b[12:1],
5x,,6x,,1xh[8:1],,7,2,5,4h[8:1],,6,6,3-1[12:1],7,4-6b[12:1],5,3x,,4x,,
8,7,1,6,2h[8:1],,7,7,1-7[12:1],8,2-4b[12:1],1x,,2x,,6xh[8:1],,
3,3,4,3,5,4,5,3-1[12:1],5,4-8b[8:1],5,3x,,4x,,1,7,5,6,3h[8:1],,
7,7,1-5[12:1],8,2-4b[12:1],1x,,2x,,6xh[8:1],,2,7,4,5h[8:1],,4,4,7-5[8:1],3,8-4b[8:1],2,
7x,,8x,,6,3,8,5,7h[8:1],,3,3,4-1[12:1],2,6-3b[12:1],4x,,6x,,2xh[8:1],,
7,1,5,2,8,4,6,1-5b[12:1],7,3,5,
1b<6[8:1]*>4[8:1],,,,1,,,,7,2,5,4,6-8-2b[16:3],,4,4,,3xq5<1[8:3],3xh[16:11],
{4},,
{16}
,,,3,4,2,,5,4,6,,1,8,2-6[8:1],7,3,,8<5[8:1]/2,,7,,18,,2,,3h[8:1]/4h[8:1],,,
5-8b[8:1]/2,,,3,,4<7[8:1]*>1[8:1],,,,4b-8[8:1],,,,4,,,,
2,2,4,4,3-1[8:1],6,4,5,,8v2-4[4:1],7h[16:5],
{4},
{16}
,,,6h[8:1],,2,4,,1h[8:1]/5h[8:1],,,26,,7,5,,4h[8:1]/8h[8:1],,,37,,8,1,8,
2bx/7bx,,2bxpp3b[16:3]/7bxqq6b[16:3],,,,,,,,,
81,,2,1,3,4,2bh[8:1],,1,1,2-4-6[16:2],4,3,1,2,,,,
7,8,6,5,7h[8:1],,3,1,2-4-6[16:2],4,3,1,2,,,,
8,1,6,5,7xh[8:1],,1,1h[16:1],,8,2,7,3xh[8:1],,8,8h[16:1],,
2,2,8,5,6,3,4<7[8:1],1,8>3b[12:1],2,4x,,8x,,,
8,1,6,5,7bh[8:1],,4,4,6-8-2[8:1],5,7,8,6,,,,
3,4,2,5,1hx[8:1],,7,8,6-8-2-4[16:3],5,7,8,6,,,,,,
4,5,6h[8:1]/3h[8:1],,,5h[8:1]/7h[8:1],,,48,,1h[8:1]/2h[8:1],,,3h[8:1]/4h[8:1],,,25,,
3b,4,1,6b,5,8,3v8[8:1],,4-7b[8:1],,,,,,,,
{4}
2p7[4:3],,
{16}
C,,,E1,,,,,
{4}
6p3[4:3],,
{16}
C,,,E1,,,,,
{4}
2>7[4:2],
{8}
8,8h[8:3],,,,,8-4-6[8:3]*-4-2[8:3],,,,,,17,,
{16}
2h[8:1]/8h[8:1],,,,4h[8:1]/2h[8:1],,,,3h[8:1]/5,,,6h[8:1]/4,,,57,,3/5h[8:1],,2,,4h[8:1]/6,,7,,
3h[8:1]/5h[8:1],,,4h[8:1]/6h[8:1],,,57,,
{48}
1b/8bx,7x,6x,5x,,,
{16}2,2,
{48}1bx,8x,7x,6x,,,
{16}3,3,
{8}4-8[8:1],26,4<3[4:1]/5,7,6h[4:1]/4,,,,
{16}
56,,18,,3v8b[12:1]/7-4b[12:1],,,,
{64}
3b/7b-1-3[4:1],Cf,,,,,,,,,,,,,,,
{8}
5-8[8:1],6,5-2-4[16:3],,5/7-4-6-1[4:1],6,7,3q5[4:1],2,3,,
7,8>3[8:1],1,8/5x<8[8:1],,5/2x>5[8:1],,2/7x>2[8:1],,7/5x<4b[4:1],,
{32}
5b/1b,D6f,D7,D8,D1,D2,D3,D4,
{8}
,,48,
{16}
6,5,7h[8:1],,1,1,
{8}
2-4[8:1]/8-4[8:1],,2-6[8:1]/8,
{16}
,,5V31[8:1]/2,,,,57,,
{8}
6-8[8:1],,4/6>3[8:1],,1h[8:1]/6,,
28,3/7-5[12:1],46,1x/7,
{16}
3-1[12:1],4,2,,3x/7,,6-4[12:1],8,7,,16,,3,,
{8}
8-5[8:1]/2,6/4-1b[12:1],28,
{64}
4b,E4f,,,,,,,
{32}
7,6,5,4,3,2,1,8,
{8}
7-2b[12:1]/3-6b[12:1],15,
7b/3b-1-7-5[4:1],,4-1[8:1],3,4-8-6[16:3],,2-5-3-1[4:1]/4,3,2,7qq8[4:1],6,37,,
2,1<6[8:1],8,1/4x>1[8:1],,4/7x<4[8:1],,7/2x<7[8:1],,2/4x>5b[4:1],,
{32}
4b/8b,D4f,D3,D2,D1,D8,D7,D6,
{8}
,7,5/6h[8:1],8,2h[8:1]/4-8[8:1],1,4/7<4[8:1],,71,,
{8}
1-6[8:1]/2v5[8:1],,12,,4/7-3[8:1],8,7/1-4[8:1]*-6[8:1],,1-7V53[4:1],,31,2h[8:1],,
12,45,78,26,45,18,2/6h[8:1],
{16}
4,4,5,,36,,5,4,6,3,7,2,8-4-2-5b[4:5],,1b/7bh[8:9],,,,,,
{4},,,,,
{16}
6bx,6bx,6bx,6bx,6bx,6bx,6bx,6bx,
6bh[8:1],,4,5,3,4h[8:1],,2,2h[8:1],,8,8,1,7,2,6h[8:1],,
5,5,7,7,3,4,2,5,4,6,3,7,4,5h[8:1],,
2h[8:1],,4,3,5,4h[8:1],,7,7h[8:1],,1,8,2,1h[8:1],,3h[8:1],,
4,2,6,5,7,1,8,2,4,3,5,1x,1xh[8:1],,
4,3bh[8:1],,5,4,6,5h[8:1],,7,7h[8:1],,1,1,8,2,7,3h[8:1],,
4,4,2,2,6,5,7,4,5,3,6,2,5,4h[8:1],,
7bh[8:1],,5,6,3,4h[8:1],,2,2h[8:1],,7,1,6,8h[8:1],,7h[8:1],,
5,6,1,4,2,8,3,7,1,8>3[12:1],2,7h[64:7],,
{32}
A6,A5,A4,
,,,,,,
E
E
