&title=Incyde
&artist=YbeLL
&first=0
&lv_5=14+
&des_5=Stellaris
&inote_5=
(180){4},{2},,,,,{4}5v8>5b[8:29]/3v8>5[8:29],
{1},,,,{8}6h[2:3],
{4},{8}B5,{4},B4,
{8},B3,{4},B1/B2,B7/B6,
{8}3h[2:3],{4},{8}B4,{4},B5,
{8},B6,{4},B8/B7,B2/B3,
{8}6<1[8:3],{4},{8}4,{4},3>8[8:3],
{8},5,{4},{2}Ch[4:1],
{8}5/4,3,4/5,6,3/5,{16}3,4,{8}3-8[8:1],3,
3/5-1[8:1],5,5/4,4,{16}4/8,7/3,2/6,1/5,{8}4b/8b,6b/2b,
{4}4/3-6[8:1],3/7-2[8:1],{8}7,4,{4}3-5[8:1],
3/7-5[8:1],{8}2/7,3,{4}6-1[8:1],6/3-6[8:1],
3/8-5[8:1],{8}8/2,3,{4}4-6[8:1],4/3,
{16}E7,B6,B5,E5,{8}A4,{16}A8,E1,B1,B2,{8}E3,{4}C,
6/4<8[8:1],{8}4/3,2,{4}1qq6<4[1:1],1,
E5,B5,E6,B6,
3/5p1[8:1],{8}5/7,6,{4}5w1[8:1],5/Cf,
,{16}B1,B2,B3,B4,B8,B7,B6,B5,E3,B2/B3,C,B7/B6,
{4}E7,B2,C,B7,
{16}2,4,3,5,{8}4,{16}7,5,6,4,{8}5,{4}7/2>4[8:1],
2/5<7[8:1],5/1-4[8:1],1/8-5[8:1],8,
2,{8}5/4,3,2h[4:1],{16}8,7,6,5,{8}4,
2b/B8,3,4,5b/B2,6,7,8b/B3,1,
8,{16}1,6,2,5,{8}3,{16}8,3,7,4,{24}6,5,6,5,{12},{8}C,
{16}B7,B6,B5,{8},{16}B3,{8}B4,B7,B2,{16}B8,B3,
B6,B1,B7,C,{8}B3,6b,4b,{16}5,4,,5,4,6,
{4}3,{16}6,3,5,4,5,4,{8}5h[16:1],3h[16:1],4h[16:1],
{16}3,4,2,5,1,1,6,6,{32}2b,3,4,5,6,7,8,1,{4}2,
{8}4h[16:1]/3h[16:1],6/4,6h[16:1]/4h[16:1],5/3,{16}4b,5,3,5,2,6,1,7,
8,8,8,8,8,8,{8}8,{2}7h[4:1]/1h[4:1],
{8}1-5[8:1],8,1-3[8:1],{16}8,7,{4}1/6-4[8:1],{8}1/6,3,
{16}2,2,6,6,3,3,7,7-3b[0.25##0.25],3,3-7[8:1],{8},,,2-4[8:1],
8-6b[8:1],2,8,{4}1h[16:3],{8}8b,8,
5h[16:1],4h[16:1],6h[16:1],3h[16:1],{16}7,2,8,1,{8}8-4[8:1],7/2,
{4}8b/1b,{16}1,7,2,6,{8}3h[16:1],5h[16:1],4h[16:1],5h[16:1],
{16}4,6,4,6,3,3,7,7,{32}2b,3,4,5,6,7,8,1,{4}2,
{8}4h[16:1]/6h[16:1],5/3,5h[16:1]/4h[16:1],4/3,{16}3,3,4,4,2,2,5,5,
{8}3h[16:1],6h[16:1],2h[16:1],5h[16:1],{4}1>3[8:1]/4<6[8:1],1/4,
{8}8-4[8:1],1,8-6[8:1],{16}1,2,{4}8/3-5[8:1],{8}3,6,
{16}7,7,3,3,6-2b[8:1],6,2-6[8:1],2,{2},{8}2-4[8:1],
8-6b[8:1],2,8,{4}1h[16:3],{8}8b,8,
{16}4b,5,3,5,2,5,1b,5,1,6,1,7,1,7,{8}1,
{1}7b-4-1[4:13]/1b-4-7b[4:13],
,,,{8}5h[4:1],
{4},{8}5h[4:1],{4},5h[4:1],
{8},5h[4:1],{4},2h[4:1],3h[4:1],
{8}4h[4:1],{4},{8}4h[4:1],{4},4h[4:1],
{8},5h[8:5],{4},,,{8}6h[4:7]/C,
{4},{8}E2,{4},E3,
{8},E4,{4},C,B2/E3/B3,
{8}3h[4:7]/C,{4},{8}E8,{4},E7,
{8},E6,{4},C,E7f/B7f/B6f,
{16}1b,8,2,7,3,6,{8}4,6/3,{16}1,8,2,7,{8}1,
{16}7,4,6,5,{8}4/7,{16}2,5,3,4,{8}5/2,{24}2b,3,4,5,6,7,
{8}8b,{16}2h,5,3h,7,1h,8,4h,6,1h,5,3h,4,8h,7,
{32}1b,2,3,4,{8}5,{32}8b,7,6,5,{8}4,{16}1/5,2/6,3/7,4/8,{8}1b/5b,7b/3b,
{4}2-5[8:1]/6-3[8:1],6/2,{8}7/1,8-3[8:1]*-5[8:1],,8-4[8:1],
,8>2[8:1]*<6[8:1],,8bw4[8:1],,{16}8b,Cf,{4},{8}7-4-6-8[8:3],
1,2/7,1>4[8:1],,1<6[8:1],,1b-5[8:1]*-5[8:1],
,1bw5[8:1],,{16}1b,Cf,{4},{16}1,2,3,4,
{8}5-8[8:1],5h[8:1],,4-1[8:1],{4}4h[8:1],{8}8-5[8:1],8h[8:1],
,1-4[8:1],{4}1h[8:1],{8}6,6,5/4,4/5,
{16}3,2,1,8,5,6,7,8,{24}2,3,4,8,7,6,1,2,3,7,6,5,
{32}1,2,3,4,1,2,3,4,8,7,6,5,8,7,6,5,1,2,3,4,5,6,7,8,{4}1b,
7-4[8:1]/3-6[8:1],7/3,{8}2/8,1-6[8:1]*-4[8:1],,1-5[8:1],
,1<7[8:1]*>3[8:1],,1bw5[8:1],,{16}1b,Cf,{4},{8}2-5-3-1[8:3],
8,2/7,8<5[8:1],,8>3[8:1],,8b-4[8:1]*-4[8:1],
,8bw4[8:1],,{16}8b,Cf,{4},{16}8,7,6,5,
{8}4-1[8:1],4h[8:1],,5-8[8:1],{4}5h[8:1],{8}1-4[8:1],1h[8:1],
,8-5[8:1],{4}8h[8:1],3-6[8:1],3,
{8}7/4,{16}1,2,{8}6/3,7h[8:1],{16}6,5,4,3,2,1,7,8,
6,1,5,2,4,3,6,5,{24}8b,7,6,5,4,3,2/5b,1,8,7,6,5,
{4}4/2b,{8}7/1pp5[4:1],8,8/1,7,{4}6,
{16}3,7,{8}3,6/4,{16}5,3,{8}5,6/2,8/3,7,
{4}3/6,{8}3/5pp8[8:3],6,3/5,4,{4}3,
{16}3,4,{8}2,5/1,{16}6,5,{8}7,8/4,{24}3,4,3,6,5,6,
{8}2,3,6/2,3,8/4,7,6/2,3,
8/4,7,6/2,3,4/8,7,6/4,3/5,
{12}2/4,3,4,7/5,6,5,8/4,1,2,8/3,7,6,
{32}1b,2,3,4h[32:3],{16},{32}8b,7,6,5h[32:3],{16},{8}1b,1b-4b[8:1]/8b-5[8:1],7/2,{4}8b/1b/B8/B1/B5/B4/Cf,
3-8[8:1]/6-1[8:1],3/6<3>6[2:1],6/5,{8}4,4h[8:1],
,2h[8:1],,7h[8:1]/8h[8:1],,{16}3,4,{24}2,5,2,5,2,5,
{8}1v4v7b[2:1],1,6,6bh[8:3],{2},{8}8/2,
3,4/5,6,{24}7,6,5,1,2,3,8,7,6,1,2,3,
{8}4b/5b,7b/2b-4[8:1],,2b/7b,{4}7b-5[8:1],{8}7b/2b,1b>4b[8:1],
,1b/8b,{4}8b,{8}8b/1b,{32}1b,2,3,4,5,6,7,8,1,2,3,4,
{8}8b-4[0.1667##0.25],8b,,1b-5[0.1667##0.25],{4}1b,{8}6/3,2/7,
1/8,{24}3b,4,3,4,3,4,3,{12},{24}6b,5,6,5,6,5,{8}6,{32}8b,1/7,3/2,5/6,
{2}4bs8b[4:1],{4}5h[8:1],5h[8:1],
4h[8:1],4h[8:1],{16}5,4,5,4,6,3,6,3,
7,2,7,2,{8}8p4[8:1],1,8,1q5[8:1],8,1,
7p3[8:1],2,7,2,1h[8:1],{16}8,8,1,7,3,5,
{8}4xh[4:1],{16}B5,B6,E7,B7,{8}B8,1xh[4:1],{16}B1,B2,E3,B3,{8}B4,
5xh[4:1],{16}B5,B6,E7,B7,{8}B8,8xh[4:1],{16}B1,B2,E3,B3,{8}B4,
7,6,5,4>2[8:1]*>2[8:1],,4<6[8:1]*<6[8:1],,4w8[8:1],
,4,,6/2,{16}8,1,7,2,6,3,5,4,
{8}6-8[8:1],4-2[8:1],6,4,5-7[8:1],3-1[8:1],5,3,
{16}5,6,7,8,4,3,2,1,{8}7,2,6,3,
{4}4h[4:1]/6h[8:1],{8}5h[8:1],2h[4:1],{4}7h[8:1],5h[8:1]/4h[8:1],
{8}2/1,3,5/4,6,8/7,{16}1,7,2,6,3,5,
{8}4,4,4/E8/B8,4,6,6,6/B2/B3,6,
{16}2,8,2,8,3,7,3,7,4,6,4,6,{24}5,5,5,5,5,5,
{8}6/4,B1,B7,B5,{4}B3,{8}C,{16}B8,B7,
{8}B6,B3,5b/4b,4b/5b,1b/8b,{24}1b/8b,7/2,6/3,{8}5/4,1b/8b,
{16}7b,8,7,8,{8}7,{16}3b,4,3,4,{8}3,{16}1b,2,1,2,
{8}1,{16}3b,4,3,4,3,4,{32}3b,2,1,8,7,6,5,4,{4}3/Cf,
{16}1b,8,2,7,{8}1,{16}7b,8,6,1,{8}7,{16}2b,1,3,8,
{8}2,{16}7b,8,6,1,7,2,{32}6b,5,4,3,2,1,8,7,{4}6/Cf,
{16}7b,8,7,8,{8}7,{16}3b,4,3,4,{8}3,{16}8b,1,8,1,
8,2,7,2,{32}7b,6,5,4,3,2,1,8,7,6,5,4,3,2,1,8,7,6,5,4,3,2,1,8,
{4}7bqq3b[2:3],C,{2}Ch[4:1],
{1},{8}7,
7,{16}5,6,{8}5,2,2,{16}4,3,{8}4,
7,7,{16}5,6,{8}5,{24}3,4,3,4,{12}3,{24}6,5,6,5,{12}6,
{8}3h[16:1],3h[16:1],{16}8,1,{8}8,6h[16:1],6h[16:1],{16}1,8,{8}1,
3h[16:1],3h[16:1],{16}6,5,{8}6,{24}3,4,3,4,{12}3,{24}6,5,6,5,{12}6,
{16}3,4,3,4,8,7,8,7,5,6,5,6,2,1,2,1,
3,4,3,4,8,7,8,7,5,6,5,6,2,1,2,1,
{32}2b,3,4,5,6,7,8,1,2,3,4,5,6,7,8,1,5b,4,3,2,1,8,7,6,5,4,3,2,1,8,7,6,
{1}5b/4-8<6-2>4[2:1],
{4}1b-4[8:1]/5b-8b[8:1],5/1<5<8[2:1],1,{8}2,2-4[8:1],
,2/1-5b[8:1],,1/8-6[8:1],,8/4-8b[16:1],{4},{16}7b,
6,5,4,{24}1b,2,3,8b,7,6,{16}1b,2,3,4,{24}8b,7,6,1b,2,3,
{32}8b,7,6,5,4,3,2,1,{24}8,7,6,2,3,4,7,6,5,1,2,3,8,7,6,2,3,4,
{16}7b,1,7,1,{24}7b,6,5,2b,3,4,{16}7,2,7,2,{24}7b,6,5,1b,2,3,
8b,7,6,5,{12}4,{24}1b,2,3,4,{12}5,{24}7b,6,5,4,{12}3,{24}2b,3,4,5,{12}6,
{8}8-5[8:1],8h[8:1],,1-4[8:1],{4}1h[8:1],{8}7-2[8:1],7h[8:1],
,4,{4}4h[8:1],{24}5,4,5,4,5,4,5,4,5,4,5,4,
{8}5b>2[8:1],6,5/7,8<5[8:1],1,8/2,3>8[8:1],4,
5/3,6<1[8:1],5,4/6,3,4,1/7<4[8:1],8,
7/1,2,8/2>5[8:1],1,8/2,7,4/7q3[8:1],7,
7/4-8[8:1],4,4/5-1[8:1],5,{4}5/1,Cfh[4:1],
{8},6,6,6,5/3,3,{24}3,4,5,6,{12},{8}6,
{32}7b,6,5,4,{8}3,3,{16}8b,7,6/2b,3,4/7b,6,5/2b,3,
4,6,5,6,5,6,1b,6,5,6,5,6,2b,6,5,6,
{32}1b,2,{16}3,{32}7b,6,{16}5,{32}2b,3,{16}4,{32}8b,7,{16}6,{8}2b/1bw5[8:1],6b/5bw1b[8:1],1b,Cf,
E
