&title=Life Flashes Before Weeb Eyes
&artist=BilliumMoto
&first=0.49
&des=JDJDH
&lv_5=14+
&inote_5=(227)
{24}
1b/8b,27,36,
{8}
4h[8:7]/5h[8:1],,,8,,
{24}
8b,7,6,
{8}
5h[8:5],,,4b,,
{24}
4-8[8:1],3,2,
{8}
1,B4,,
{16}
27,,,,1,,8,1,8,,1,8,1,,8,,8,,1,,2bx/8bx,,,,4bx-7[8:1]/6bx-2[8:1],,,,,,,,{24}
8b/1b,72,63,
{8}
5h[8:7]/4h[8:1],,,1,,
{24}
1b,2,3,
{8}
4h[8:1],,4,5b,4,
{24}
5-1[8:1],6,7,
{8}
8,B1,,
{16}
28,,,,68,,,,57,,,46,,,35,,
{4}
2/4h[4:1],6h[4:1],8h[4:1],1b,
{8}
3/7h[8:2],,4,7h[8:2],5,,7/6h[8:3],
(340.5)
{8}
,
(227)
{24}
,8,,
{8}
8>4[8:2],,6,6-1[8:1],,6,,
6x/2h[8:2],,5,2h[8:2],4,,2/3h[8:3],,1,1h[8:2],,3,2>5[8:1],1,8,,
6/8h[8:2],,7,8h[8:2],1,,28,,
{16}
65,,,54,,,43,,34,,,54,,,56,,
4,3,2,1,3,2,1,8,
{24}
2,1,8,7,6,5,1,8,7,6,5,4,
{32}
2b,1,8,7,6,5,4,3xh[32:9],
{8}
,,8,1,2,7,{24}
6>3[8:1]/A3,D3,A2,D2,A1,D1,
{4}
A8/6x,7,
{32}
5h[8:3]/D8,A8,D1,A1,D2,A2,D3,A3,
D4,A4,D5,,D6,A6,D7,A7,
{4}
,1,
{8}
8h[16:1],2h[16:1],
{4}
3-8[8:1]/7-2[8:1],,
{8}
1x,1x,
{16}
8,7,6,5,
{8}
4-7[8:1],3,2/E5,1-5[8:1],8,7/B1,,,
{24}
4x,3x,2x,1x,8x,,
{16}
6,5,6,5,7,,5x/8bh[8:3],,6x,5,4,3,
2h[8:1],,1,2,1,2,1,,3,4,3,4,
{8}
3h[16:1],5h[16:1],2-5[8:1]/6-3[8:1],,,,
{16}
4x,5x,3x,,8,,8,1,7,,26,,35,,,,4,,5,3,7,,2,,
{24}
3<6[8:1]/A6,D7,A7,D8,A8,D1,
{4}
A1/3x,2,
{32}
4h[8:3]/D2,A1,D1,A8,D8,A7,D7,A6,
D6,A5,D5,,D4,A3,D3,A2,
{4}
,8,
{8}
1h[16:1],7h[16:1],
{4}
6-1[8:1]/2v7[8:1],,
{8}
8x,8x,
{16}
1,2,3,4,
{8}
5-2[8:1],6,7/E5,8-4[8:1],1,2/B8,,,
{24}
5x,6x,7x,8x,1x,,
{16}
3,4,3,4,2,,4x/1bh[8:3],,3x,4,5,6,
7h[8:1],,8,7,8,7,8,,6,5,6,5,
{8}
6h[16:1],4h[16:1],7-4[8:1]/3v6[8:1],,C,,
{16}
5x,4x,6x,,1,,1,8,2,,73,,64,,,,5,,4,6,2,,8,,
7/1,2,3,4,7,6,5,4,
{4}
8,
{32}
8h[8:3]/A2,D3,A3,D4,A4,D5,A5,D6,
A6,D7,A7,D8,,D1,A1,D2,
{4}
,4,
{8}
35,7,46,A2/D2,35,A8/E8,1-5[8:1],,
{16}
5,6,7,8,4,,4,,2,1,8,7,
5/6>3b[8:1],,,,67,,,,
28,7,6,5,2,3,4,5,1,,3,,1,8,7,6,5,,
{32}
3h[8:3]/A5,D6,A6,D7,A7,D8,A8,D1,
A1,D2,A2,D3,,D4,A4,D5,
{8}
,1h[16:1],7h[16:1],2v5[8:1]/6v3[8:1],,,,
{32}
4x,3x,2x,1x,
{8}
,7,8,
{24}
1h[8:1]/7,6,5,,,,
8h[8:1]/2,3,4,,,,
{16}
4,5,3,6,2,7,1,8,
{32}
D2/A2,D3,A3,D4,A4,D5,,,
A8/D8,A7,D7,A6,D6,A5,,,
{8}
1,,
{32}
6h[8:4]/A3,D4,A4,D5,A5,D6,,D7,A7,D8,A8,D1,A1,D2,A2,D3,
{4}
,8,
{8}
56,2,34,A7/D8,56,A1/E2,8b-4b[8:1],,
{16}
4,3,2,1,5,,5,,7,8,1,2,
3/4>1[8:1],,,,45,,,,
{32}
D8/A7,D7,A6,D6,A5,D5,,,
A1/D2,A2,D3,A3,D4,A4,,,
{4}
6h[8:2],
{32}
5,4,3,2,
1,,,,
1h[8:4]/A7,D8,A8,D1,,D2,A2,D3,A3,D4,A4,D5,A5,D6,A6,D7,
{8}
,,8h[16:1],2h[16:1],3v6[8:1]/7v4[8:1],,,,
5xh[16:1],3xh[16:1],6h[16:1],2h[16:1],
7h[16:1],1h[16:1],8h[16:1],2h[16:1],
{16}
7,E7,1,B1,8,B8,2,E3,
{8}
4bqq7>3[4:7],,,5,,5,,,6-2b[8:3],,,,,,,,
5pp1<6[4:7],,,3,,3,,,2q7b[8:3],,,,,,,,
1pp6>2[4:7],,,8,,8,,,7v4b[8:3],,,,,,,,
8qq4<7[4:7],,,2,,2,,,4,,3,,2,,1,,
8pp7<3b[4:7],,,7,,7,,,6-2[8:3],,,,,,,,
1qq2>6b[4:7],,,2,,2,,,3-7[8:3],,,,,,,,
8pp6>3b[4:7],,,7,,7,,,6<2[8:3],,,,,,,,
1,,,,1,,,
1,2,3,4,4,5,5,5,5,
{16}
5,,,5,,,5h[8:1],,
{8}
C,,2,2h[8:2],,E8,,1,,,,E3/B3/B4/E4,,,,
{16}
6,5,
{8}
6,,7,7h[8:1],B2,,8,,E6,,3,,4h[8:2],,
{32}
B5,B6,E7,,
{8}
,E2/B2,,8,8h[11:3],,,,5,,,,E7/B6/B5/E6,,,,
{16}
2,1,
{8}
2,,4,3h[8:1],6,5,5h[8:1],B6/B7/E8,,B2/B3/E4,,,
B7/B8/E8/D8,,,1h[8:1],E2,,6,6h[8:2],,E5,,3h[8:1],E4,,,
B2/B1/E2/D2,,,,
{16}
7,8,
{8}
7,,5,5h[8:3],,,4,E8,E2,
{16}
E3,B3,
{8}
B4/8,,
2h[8:2],,
{32}
B6,B7,E8,,
{8}
,B3/E4,,6,6h[8:2],,C,,1h[8:1],D8,
{16}
E7,B6,
{8}
B5,B2/B3/E3/D3,,,
5,5,4,4,5,4,
5h[8:2],,
{16}
E4,B3,B2,E2,E6,B6,B7,E8,D5,E5,C,E1,
{8}
D1f,,,,3x/4x,,5<7[8:2],,4,,,5h[8:1],E8,,,8-4[8:12],
{4}
,,1,7,2,6,3,5,
{8}
2,,2,,8,,1>3[8:2],,7,,,8h[8:1],E3,,,1-5[8:12],
{4}
,,,,,
{16}
4,3,
{8}
2,2,,1,,
8-4[8:12],,,,7,,7,,
{12}
1,8,7,
{8}
6,,5,,6,6h[8:5],
,,,,,3,4,5,6,4,5,6,4,5,6,7,
{4}
8,8,7,1>3[8:2],8,
{8}
,6h[8:1],E1,,,4-8[8:14],
,,,,,,4x,5,3,4,4-8b[8:1],5,,,,,
1/6h[24:1],,7/4h[24:1],,
{24}
3,5,4,
{8}
6h[8:1],5,,7,6,5,4,5,
{16}
4,3,
{8}
2h[8:1],4h[8:2],
{24}
,,1,,,,
{4}
,8h[4:1],2h[4:1],6h[8:5],,
{8}
,3,4,5,7h[8:3],,,5,
{16}
7,6,7,8,6h[8:5],,,,,,,,,,8,7,1h[8:1],,8,2,
{8}
1,8,3h[8:4],,,,
{16}
6,5,6,,3,4,3,,7,8,6,,2,1,3,8,
{8}
4,5,6,7,38,,26,,
{16}
7,1,
{8}
8h[8:1],2h[8:4],,,,
{8}
4,1,5,
{16}
6,7,
{8}
8,4/8h[8:2],,
{16}
3,2,
{8}
1,,24,,36,,7/4h[8:3],,,5,6,7,8,8,1,1h[8:2],,7,
{16}
82,3,
{8}
4,6,6h[16:3],
{16}
4,3h[16:3],,,7,6,
{8}
5,2,1,8,8,4h[8:3],,,5,6,7,1,1,1-5[8:1],,,,7h[8:2],,4,3,
{4}
2b/B6/E6,8b/B3/E3,
{8}
1b/B7/C,1,8,2,3,14,,7,58,,2h[8:3]/6,,,8,
{16}
7,6,5,4,2,1,
{8}
8,6,4-6[8:1],2,4>1[8:1],,4z8[8:3],,4,,,
{16}
1b,,,,5,,4,,5,,5,5,5,,4,,5,,5,,8h[8:2],,,,7h[8:2],,,,5,,,,
1b,,,,4,,5,,4,,4,4,4,,5,,4h[8:2],,,,1h[8:2],,,,2,,8,,4,3,2,1,
{8}
8bh[8:4]/5bh[8:4],,,,
{32}
,E1`E6,,,
{8}
,,,2b/7b``B2`E8,,,1b/4b``E1`B4,,,3bh[8:6]/6bh[8:6],,,,,,
{32}
,D4`D6`D5,,,
{8}
,7,8,1<3[8:4],,,,1b,,,,
6/2-7[8:1],,2x/4,,
{16}
15,,3,4,3,,26,,
{8}
7v4[8:1],8,3<6[8:1],2,8,,1,1,
3/7-2[8:1],,7x/5,,
{16}
48,,6,5,6,,17,,3,5,2,,16,,7,8,7,,2b/4b,,
{8}
,,5b/B7/A7,,1b/B3/A3,,2b/6b,7,8,1,
2,3b/8b,,6,4b/7b,,1b/5bh[8:8],,D3,,D5,,D7,,D1,,
C,8<5[8:1],,8<2b[8:3],,8,,,
{16}
8b,,,,1,,8,8,8,,1,1,1,,8,,1,,8,,2h[8:2],,,,4h[8:2],,,,6h[8:2],,,,
7b,,,,8,,1,,8,,1,1,1,,8,,1h[8:2],,,,7h[8:2],,,,8,,7,,8,7,6,5,
{4}
4bh[8:4]/1bh[8:4],,
{32}
,E1`E4,,,
{8}
,,,7b/2b``B7`E2,,,8b/5b``E1`B5,,,6bh[8:6]/3bh[8:6],,,,,,
{32}
,D6/D4/D5,,,
{8}
,2,1,8>6b[8:4],,,,8b,,,,
3/7-2b[8:1],,7x/5,,
{16}
84,,6,5,6,,73,,
{8}
2v5[8:1],1,6>3[8:1],7,1,,8,8,
6/2-7b[8:1],,2x/4,,
{16}
51,,3,4,3,,82,,6,4,7,,83,,2,1,
{4}
Cf,,
{8}
8bx,,,,,,3,4,5,6,7,8,1,,2,,
{16}
6,5,
{8}
4,3,4,5h[8:9],,,,,,,,,3,4,5,
6h[8:56],,,,,,,,
,E5,E4,E6,E3,,,B4,B3,E1,E2,,,,
D4,A4,D3,A3,D2,A2,D1,A1,
E4,E3,E2,,B4,B3,,B6,B5,,,,E4,A3,,D5,A4,D4,,,,,,,,,
,,,,8h[8:2],,5,4,7h[8:29]/3,,4,3,,2,1,,,,3,2,,5,4,3,,,5,4,,3,2,,,,2,1,,3,6,4,
5h[8:6],,,,,,4,3,4,5,6,7,1,,8,,
{16}
1,8,
{8}
1,7,3,5h[8:9],,,,,,,,,4,7,6,3h[8:20],,,D6,E5,,A8,,A1,,D7,D6,B6,,D5,,C,,A7,D8,A8,
4,6,5,3h[8:4],,,,4h[8:4],,,,5h[8:5],,,,,
6,4,5,3,2,1,8,,,,3,4,5,8,7,,,4,5,5,6,7,1,8,2,3,4,
{16}
8,,,
{4}
6,5,4,3<6[16:45],
{16}
,
{1}
,,,E
