&title=ビバナミダ
&artist=岡村靖幸
&first=0.015
&des=太空男友
&des_5=
&lv_5=13+
&inote_5=(128){4},{8},,,,,5x/2x,
{64}1bxh,B1f,{32},,,,,,,{8}6,8-4V25[8:3],{4},{8}5,7x,
{64}8bxh,B8,{32},,,,,,,{8}3,1-5V74b[8:3],{4},{8}4,2x,
{64}1bxh,B1,{32},,,,,,,{8}6,8V61-3b[8:3],{2},{8}Cfh[8:3],
{4},{8}1xh[4:1],{4},{8}6/2x-5[8:1],{16}3,4,
{4}2bx,6xh[8:1]/E5,3xh[8:1]/C,{8}7x/E1,7xh[4:1],
,1,{4}8/2xh[8:1],3/7xh[8:1],{8}4x/6x,4x/6x,
{4}3xh[8:1]/8-3[8:1],2xh[8:1],5xh[8:1]/1-5[8:1],7xh[8:1],
{8}7/4xh[8:1],6,2/5xh[8:1],3,4xh[8:1]/7-4[8:1],{16}6,5,{8}7x,2x,
4x/3xh[8:1],E5,5x/6xh[8:1],C,7x/3xh[8:1],E1,2x/6x,5x/4x-1[8:1],
,8,{4}8,{8}2x/7-4[8:1],7x/2-5[8:1],,,,6,
5/7xh[8:1],4,6/4xh[8:1],5,4xh[8:1]/2v5b[6:1]*v8[6:1],3,
,,,{16}4,5,2-5[8:1],1,3,4,{8}2bx,{16}6x,6x,
{8}8x,8h[8:1],6,6h[8:1],{4}4-2[8:1],{8}5,5V74-8[8:3],
,1,,1h[2:1],,E1,E7,E5,
2x,2h[8:1],4,4h[8:1],6,6h[8:1],8,8-6v5[4:1],
,5w1[8:1],{2},{64}8bxh,B8f,{32},,,{16}2x,2x,
{4}4x-7[8:1],{8}2-5[8:1],2,8,8,,1/7h[2:1],
,E1,E3,E5,{2}6x>3[32:3]/5x>3[32:3],
{8}3/4,2,5/4,6,7/5,3,4/2,1,
{16}6x,3,5,4,7x,3,6,5,8x,3,4,2,1x,3,6,5,
{8}7bx<4[8:1],1>4[8:1],7,1,{4}6<1>4b[4:1],{8}5,5h[4:1],
,6,7/8,1,8/1,2,7/3,5/6,
8<6[32:3],4>2[32:3],8-4[8:1],4,{4}8,{8}4/1>4b[8:1]*q7[4:1],1/4<7b[8:1],
,,,{16}8,1,8,1,{8}8,7/2,{16}3,4,
{8}2>5[8:1],8<5[8:1],2,8,{4}3-8b[8:1],8bV25[4:1]/3bV15[4:1],
{8},,,6,4/7,3,2/5,{16}1,8,
1-3[32:3],8,{8}1-7[32:3],1x-4[32:3],1x-6[32:3],1x-5[8:1],1x,1x,{48}8bxh,E8,E7,E6,{6},{48}1bx-7-2-6-3-5b[2:1],
E2,E3,E4,{6},{8}1bx/Cf,{2},{8}8bqq8[4:1],
6/1,{4}8w4b[8:1],E8/E1/B8f,{8}6/2-5[32:3],8-4[8:1],
2,8,1,2,8/3,1,4>1[8:1]/7<4[8:1],8,
{4}7x/4x-8[8:1],B1/E1/A1,{8}5x-1[8:1],8x<5[8:1],5x>2[8:1],B8/A8f/E1,
{4},{16}1,8,2,7,5,6,3,4,2,1,3,8,
{8}2bqq3[4:1],6bqq7[4:1],2x,6x,,1x,8x,3xpp2[16:3]/7xpp6[16:3],
,{64}3x/7x,Cf,{32},,,,,,,,,,,{8}6x/2x-6b[8:1],4x/8x-4b[8:1],2b,8b,
,1xq5[8:1]*p5b[8:1],3x/7x,1b,,8x<5[8:1]*>3b[8:1],6x/2x,8b,
,{32}7x/4x,6x/3x,{16}5x/2x,{8},{32}1xpp4[4:1]/5xpp8b[4:1],2x/6x,{16}3x/7x,{8},Cf,{4},{8}2bxpp1[4:1],
3/8,{4}1w5b[8:1],E2/E1/B1f,{8}8/3-8[32:3],6-1[8:1],
3,6,2,4,6/5,7,5>2[8:1]/8<5[8:1],1,
{4}5x/8xw4b[8:1],8bx,{8}1-5b[8:1],2/5w1b[8:1],1bx,Cf,
{4},{32}2x/6x,3x/7x,4x/8x,5x,6x-4-7-1b[4:1],7x,8x,1x,2x,3x,4x,5x,{8},{4}B1f,
{8}2bx-5[8:1],7bxV58-4b[16:5],2b,7b,1,1,2,5b/3b>5[16:3],
,{64}3bx/7bxh,E7f,E6,E5,{16},,,,,{8}8bx<5b[8:1],5bx>2b[8:1],3bx,1bx,
,8bxp3b[8:1]*q5b[8:1],6x/2x,8b,,1bxw5b[8:1],3x/7x,Cf/A1/B1/A5/B5,
{4},4/5,{8}5/4,{32}4x/7x,3x/6x,2x/5x,1,8x,7x,6x,5x,{64}8bxh,B8f,{32},,,{16}3x,
4,2,4,{8}3h[8:1],{16}6x,5,7,5,{8}6h[8:1],{16}8,7,1,8,
2x,1,3,1,{8}2h[8:1],{16}7x,8,6,8,{8}7h[8:1],{16}5,6,4,5,
3x,4,3,2,{8}3h[8:1],{16}6x,5,6,7,{8}6h[8:1],{16}1,7,2,8,
{8}3bxqq8b[3:1],1bx/7bxqq4b[24:5],3bx,{64}7bx,Cf,
E
