&title=Your voice so... feat.Such
&artist=PSYQUI
&first=0.02
&des=ICREAPT-100
&lv_6=14
&inote_5=
&inote_6=(176){1},
{1},
{2}3h[2:1]/5,4,6h[1:1],5,
{4}3h[2:1],5,4-8[4:1],,
{4}2h[2:1],8,7h[2:1],1,
{4}1V35[2:1],,,7,
{4}6h[1:1],4,3,2,
{4}1h[2:1],,8h[2:1],2,
{4}2h[4:1],7h[4:1],3h[4:1],6,
{8}3/5<8[2:1],,2,2,2,,1,,
{4}2/8,3/7,4/6,3/5,
{8}4>1[2:1]/6,,7,7,7,,8,,
{4}7/1,6/2,5/3,6/4,
{8}3/7,6,1/5,2,7/3,4,1/5,8,
{8}7/3,7/3,6/2,6/2,1/5,1/5,8/4,8/4,
{16}1,5,1,5,2,6,2,6,3,7,3,7,4,8,4,8,
{32}5,6,7,8,1,2,3,4,5/8v3[8:1]*p4[8:1],,,,,,,,8b>7[8:3],,,,,,,,2h[2:1],,,,,,,,
{16},,,,,,,,
{32}2,3,4,,,,7,6,5,,,,1,2,3,,8,7,6,,,,2,3,4,,,,8,7,6,,
{4}3<6[4:1],6<1[4:1],
{16}1>4[4:1],,,,4<7[16:3],,,,8h[8:3],,,,,1,2,3,
{16}4/8,,7,,2/6,,3,5,2V48[8:3],,,,7-5[8:1],,,,
{16}7,,,,1/6,,7,,8/3,,2,1,,3,8,,
{16}7-5[8:1]/4-2[8:1],,8,,7>4[4:1]/4,,,,4<1[4:1],,,,1,,,,
{16}2-6[8:1]*-5[8:1],,,,2,,,,7h[8:1]/4,,,6h[8:1]/3,,,5/2,,
{16}1b-5[8:1]/6b,,,,7b-4[8:1]/1b,,,,3b/7b,,,,1b/5b,,6,3,
{32}7<4[8:1],,,,,,,,3,2,1,8,,,,,
{16}1b-6[16:1],,,4b-8[16:1],,,3b,,
{8}2-4[8:1],1-6[8:1],2,1,2<7[4:1],,7<4[4:1],,
{16}4>1[4:1],,,,1<6[16:3],,,,5h[8:3],,,,,4,3,2,
{8}1-5[8:1]/5,6-8[8:1],1,6,4-2[8:1],1-5[8:1],4,1,
{16}4bw8[8:1],,,,4,,,,2/6,,7,8,,6,1,,
{8}5-8[8:1]/2-4[8:1],1,2<5[4:1]/5,,5>8[4:1],,8,,
{16}7-3[8:1]*-4[8:1],,,,7,,,,2h[8:1]/5,,,3h[8:1]/6,,,4/7,,
{16}8b-4[8:1]/3b,,,,2b-6[8:1]/8b,,,,7b/2b,,,,8bqq4[4:6]/4b,,,,
{2},3h[4:1],
{4}2h[4:1],,8w4[8:1],8b,
{16}2/6,,3,4,3,,2,,3/7,,6,5,6,,7,,
{4}8<4[4:1],4>8[4:1],8,4,
{16}7/3,,6,5,6,,7,,6/2,,3,4,3,,2,,
{16}3/7,,2,1,2,,3,,2/6,,7,8,7,,6,,
{16}2/5,,3,4,2,,2,,1/6,,7,8,6,,6,,
{4}1>5[4:1],5<1[4:1],1,5,
{16},,,2b,,,,,4>8[8:3],,,,,,,,
{2}6h[4:1],5<1[8:3],
{4}4pp4[8:3]*qq4[8:3],,,3h[2:1]/5h[2:1],
{2},2h[2:1]/6h[2:1],
{16},,,,1b-5[8:1]/7b,,,,,,,,8b-4[16:1]/2b,,,,
{16},,,5b/3b,,,4b/6b,,3h[4:1]/7h[4:1],,,,,,,,
{16}7/4,,6,5,7,,7,,8/3,,2,1,3,,3,,
{4}8b-5[8:1],2b-6[8:1],7b-3[8:1],1b-4[32:3],
(209)
{32}5,6,7,,,,,,
(176)
{8}8b<5[8:1],,5/8,4-8[8:1],3-1[8:1],4,3,,
{8}7-4[8:1],6,1V35[4:1]/7,2,1/6,7,8,,
{32}7<5[8:1]/3,,,,8/4,,,,7/3,2,1,,,,,,2>4[8:1]/6,,,,1/5,,,,2/6,7,8,,,,,,
{32}7/3,6/2,5/1,4,,,,,8/4,1/5,2/6,3,,,,,7/3,2/6,1/5,,,,,,8b/4b,,,,,,6b/2b,,
{16},,5b/1b,,
{32}7V51[8:3]/2,3,4,,8,,,,
{8}2-4[8:1],1,2,,
{8}8-5[8:1],5-8[8:1],8,,1-4[8:1],4-1[8:1],1b,,
{8}8b,2b/6b,,5b,7b/3b,1,
{32}2b/8b,3,4,5,,,,,
{32}7b/1b,6,5,4,,,,,2b/8b,3,4,5,,,,,7b/1bw5[8:1],6,5,4,,,,,,,,,,,,,
{4}3h[8:1]/7h[8:1],2h[8:1]/6h[8:1],1h[8:1]/5h[8:1],4h[8:1]/8h[8:1],
{4}3h[8:1]/7h[8:1],2h[8:1]/6h[8:1],
{32}1/7,2/6,3/5,4,,,,,
{16}8b<5[8:1],,,2,8-4[8:1],,1,,8>3[8:1],,,6,8V64[4:1],,7,,8,,,,
{16}3,,2,,1w5[8:1],,,,1,,,,1b>4[8:1],,,7,1-5[8:1],,8,,1<6[8:1],,,3,1,,2,,1b/5b,,,
{16}2b/6b,,,3b/7b,,,8b/4b,,,8/4,,8/4,,8b/4b,,,7b/3b,
{16},,2b/6b,,,1b/5b,,,1/5,,1/5,,1-5[8:1],,,,
{4}1h[4:1],8-4[8:1],8h[4:1],2-6[8:1],
{4}2h[4:1],7-3[8:1],7h[4:1],4-8[8:1],
{4}4h[4:1],5-1[8:1],5h[4:1],3-7[8:1],
{8}3h[4:1],,6-2[8:1],,6h[4:1],,1,1,
{8}2h[8:1]/6,5,8/4h[8:1],1,2/6,2/6,3/7,3/7,8/4,8/4,1/5,1/5,
{16}8/4,,8/4,,7,3,7,3,6,2,6,2,5,1,5,1,
{32}4,3,2,1,8,7,6,5,4/1p1[4:1]*q1[4:1],,,,,,,,1b<2[32:7],,,,,,,,,,,,,,,,1,8,7,6,5,4,3,2,8b-4[8:1]/1,,,,,,,,
{16}1/8-6[8:1],,,2,2-4[8:1]/8-4[8:1],,1,,8/2,,,,6-8[8:1]/2-4[8:1],,1/5,,
{16}2-6[8:1],,,,7-4[8:1]/2,,,,7/1,,,,7-1[8:1],,,,
{16}7-5[8:1]/2,,,2,7-3[8:1]/2-4[8:1],,1,,7/2,,,,8-4[8:1],,3-1[8:1],,
{16}8,,3,,5-7[8:1],,8-4[8:1],,5,,8,,7-1[8:1],,,,
{16}3/7-4[8:1],,,2,2-5[8:1]/7-1[8:1],,3,,7/2,,,,7-1[8:1]/3-5[8:1],,6/2,,
{16}3-7[8:1]/7,,,,6-1[8:1]/3,,,,6/4,,,,8-4[8:1],,,,
{16}8-6[8:1]/3,,,3,3-1[8:1]/8-4[8:1],,4,,8/3,,,,5V71[4:1],,,,
{4}1V35[4:1],5,1,
{32}4/6,3,2,1,8,7,6,5,
{8}4/8-4[8:1],,3-1[8:1]/8-6[8:1],2,8/3-5[8:1],,7-4[8:1]/3,8,
{8}2-6[8:1]/7-1[8:1],,2V48[4:1]/7,,7/2,,
{32}5,4,3,2,1,8,7,6,
{8}5/1-5[8:1],,1>4[8:1]/8-6[8:1],7,1/8-4[8:1],,8-6[8:1],1-3[8:1],
{8}8-4[8:1],1-5[8:1],8-6[8:1],1-3[8:1],8,1,
{32}8,7,6,5,4,3,2,1,
{8}8/4-8[8:1],,7-5[8:1]/4-2[8:1],6,4/7-1[8:1],,7-4[8:1]/3-8[8:1],4,
{8}7>2[8:1]/3,,
{32}7-3[8:1]/3-7[8:1],4,5,6,,,,,3/7,,,,,,,,1/6,2,3,4,5,6,7,8,
{8}1/5-1[8:1],,2-4[8:1]/5<8[8:1],3,2/5,,
{16}2,8,4,7,
{16}1,5,3,1,4,7,8,5,1,,1,,6,4,8,3,
{16}5,1,7,5,8,3,4,1,5,,5,,
{32}1,2,3,4,5,6,7,8,
{1}1s5[1:1]/5s1[1:1],
{32},,,,,,,,,,,,,,,,8/4,3/7,2/6,1/5,,,,,
{8}1/5,2,
{8}3/7,6,
{32}1/5,2,3,,,,7,6,5,,,2,3,4,,,
{12}8h[1:0],8h[1:0],8h[1:0],
{12}4h[1:0],4h[1:0],4h[1:0],
{8}6,4,3h[8:1]/7h[8:1],,2h[8:1]/8h[8:1],,
{16}3,5,2h[4:1],,,,6,4,7-3[8:1],,2,,7b-5[8:1]/1b-4[8:1],,,,
{16}1b-6[8:1]/7b,,,,1b/5b,,,,1/7,,2/6,,3h[8:1]/5h[8:1],,,,
{16}3/5,,3,4,2,,6,5,7,,3,4,2/5,,6,5,
{16}7/4,,3,4,2-5[8:1]/5-1[8:1],,1,,2/5,,,,8<5[4:1],,,,
{16}2,,,,1>4[4:1],,,7,,,8,,8b-4[8:1],,,,
{16}8b/3b,2,1-5[8:1],,,,6b/1b,7,8,,4,,3V15[4:1]/6,,,,
{16}3,,6,7,8,,4,7,,3,6,,2-4[8:1]/5-7[8:1],,1,,
{16}2/5,,,,8V61[8:5]/5-3[8:1],,,,5,,,,2v5[8:1],,,,
{16}2,,,,4h[8:1]/8h[8:1],,,3h[8:1]/7h[8:1],,,2/6,,1h[8:1]/5h[8:1],,,2h[8:1]/6h[8:1],
{16},,3h[8:1]/7h[8:1],,,4h[8:1]/8h[8:1],,,7-4[8:1]/3v8[8:1],,2/6,,7b/3b<2[1:5],,,,
{4},,,1h[4:1],
{4},,,7h[4:1],
{4},,,,
{1},
{1},
{1},
E
