&title=Better Call Goofy Ahh Saul
&artist=Memnicus
&first=0.45
&des=speckles
&lv_5=14
&inote_5={32}(180)1b/8bs4[8:1],B7f/B1,C/B6,B5/E6,{4},{8},{4}1xh[8:1]/B6,8h[8:1]/E3,
3x/5xh[8:1],8h[8:1]/2-4[8:1],7/2-8[8:1],7v6b[8:1]/2-5b[8:1],
{2}2b/7b>2[16:1],{8}4,7/8,4/5,3/2,
{4}5h[8:1]/7qq4[8:1],7/1h[8:1],{8}2,5,{4}4z8[8:1]/3s7[8:1],
3b/4b,Ch[8:1],{8}7/4,7/3,1/6,1/7,
{4}1/8<5[8:1],8/2-4[8:1],2/1-5[8:1],8v3[8:1]/1V37[8:1],
8b/1b,Ch[8:1],{8}8/2,2/8,2/6,4/8,
{4}6-8[16:1]/2-4[16:1],2-6[16:1]/6-2[16:1],{2}6<8[16:1]/2>4[16:1],
7b-4[0.6667##0.08]/3b-6[0.6667##0.08],{4}7b/3b,{8}2/8,7/3,
{4}5h[8:1]/2h[8:1],5h[8:1]/8h[8:1],5h[8:1]/4>8[8:1],4b/7w3[16:1],
{2}7bqq3[8:1],{8}5x/1x,6x/1x,1/4,7/1,
{4}3<6[16:1]/1v6[16:1],3/1,{16}8x/2x,3/7,{8}6/4w8[0.5##0.08],{4}Ch[8:1],
4b,5h[8:1],{8}2/5,2/6,8/3,8/2,
{4}8/1h[8:1],{8}4/8-5[16:1],4,3/8-2[16:1],3,{4}5/8w4[16:1],
8b,1h[8:1],{8}1/7,1/6,1/5,1/4,
{4}1/3-7[16:1],3/1-4[16:1],{8}1b-5[16:1],6b,{4}1b,
Cf/B2/B3/B4/B5/B6/B8/B7/B1,{8}8b/2b,7b/3b,4b/6b,2,{16}6b,5,{8}6,
6/2,6/1,{4}8-3[8:1]/6-4[8:1],8/6-1[8:1],6/2w6[16:1],
2b,{8}8b/4b,3b/7b,{4}2b/6b<1[8:1],{16}6/2,3,{8}4,
7-4[8:1],7,{4}7/1-3[8:1],{8}1/8,7,{4}6/5,
{16}1,1,1,1,1q5[8:1]*p5[8:1],1,1,1,{4}1b,{8}1,2,
3/8,3/7,{4}6/3-6[16:1],B8/3-1[16:1],3/B5,
{16}8,8,8,8,8q4[8:1]*p4[8:1],8,8,8,{4}8b,{8}8,7,
6/1,6/2,{4}3/6-3[16:1],B1/6-8[16:1],6/B4,
{16}5b/4b,B5/B4/E6/A6/E4/A3/B3/B6/E7/D7/Cf/E3/D3/A2/B2/E2/D2/A1/B1/E1/B8/D1/A8/E8/D8/A7/B7/D6/E5/D4,{8},3x,3x,{4}6h[8:1]/2h[8:1],{8}6h[16:1],6/3,
1/E8,1/E8,1/B7,E6/1>4[16:1],8x-5[16:1],1x,{4}8v7[16:1]*v1[16:1],
8b,{8}5,5,{4}3h[8:1]/7h[8:1],{8}3h[16:1],3/6,
8/E2,8/E2,8/B2,E4/8<5[16:1],1x-4[16:1],8x,{4}1v2[16:1]*v8[16:1],
1b,{32}8-5[16:1],7,6,5,4,3,2,1,{4}8/4h[8:1],{8}8/2,2,
7/4,7/3,{4}2/7-2[16:1],B4/7-5[16:1],B1/7-1[16:1],
7b/3,{32}4-1[16:1],3,2,1,8,7,6,5,{4}4/8h[8:1],{8}8/2,2,
7/4,7/3,7-3[16:1],1-5[16:1],7>2[16:1],1,{4}7w3b[16:1],
{64}7b,B8/B6/B7,B1/B5/Cf,B2/B3/B4,{16},,,{32}8xh[8:1]/B3,B4,B5,B6,{8},{4}2/7,{8}2/6h[8:1],2,
{32}B8,C,{16}B4,{8},{32}8h[8:1]/B2,C,{16}B6,{8},{4}7-4[16:1],3h[8:1]/7pp3[8:1],
{32},B7,D1,B3,{8},{32}2xh[8:1]/A7,E7,B6,B5,{8},4x/3x,7/8,5/4h[8:1],1,
{4}7h[8:1]/8>4[16:1],{64}8/7h[8:1],A1,A2,A3,{16}A4,{8},1v3[16:1],2/8,{4}5h[8:1],
{8}8-6[16:1],4-2[16:1],8v5[16:1],4v1[16:1],{4}8,{8}8<5[16:1],1-3[16:1],
8p4[16:1],1,{4}8v3[16:1],{8}1/8-5[16:1],1,{4}1,
{8}8b/4-2[16:1],8-6[16:1],4-1[16:1],8-5[16:1],{4}4,{8}4>1[16:1],5-7[16:1],
4p8[16:1],5,{4}4v7[16:1],{8}5/4-1[16:1],5,{4}5/4w8[16:1],
{32}4b,Cf,{16},,,{24}5x-1[16:1]/1x-5[16:1],2x/6x,3x/7x,8/4,{12},{4}5<7[16:1],{8}5/2,4,
{16}3x,2,{8}1,{16}3x/8-4[16:1],4,{8},{16}1x/8-5[16:1],2,{8},{16}8/1x,2,{8},{4}8b,
{24}4-8[16:1]/8-4[16:1],7/3,6/2,5/1,{12},{4}8/4>2[16:1],{8}4/7,6,
{16}6x,7,{8}8,{16}6/1-5[16:1],5,{8},{16}8/1-4[16:1],7,{8},{16}1/8,7,{8},5/1b-3[16:1],
7,8/1-5[16:1],5,{4}1/7,{8}4/8b-6[16:1],2,
1/8-4[16:1],4,{4}8/2,{8}8/1p4[16:1],2,{4}8h[8:1]/1qq4[4:3],
{8}7b,{4},{8}5,{2}5,
{4}8h[4:1],2h[4:1],6h[4:1],4h[4:1],
7h[8:1],{8}5h[8:1],3h[8:1],7h[4:1],2,{4}2q5b[16:1],
{1}2b,
