&title=Boss Rush
&artist=USAO
&first=0.05999999
&lv_5=14
&des_5=QMO
&inote_5=
(190){4},{2},{4}Ch[2:1],
,B2/E3/B3/B7/E7/B6,,{8}E2,E7,
B4,B6,,B2/E3,,E6/B5,,C,
B3,E6,E8,B8,{4}B1,B3/B4,
{8}E8/B7,E2/B2,E4,B4,{4}B5,6x,
6x-2[8:1],6b,,{8}1h[8:1],3h[8:1],
5h[8:1],7h[4:1],,1h[4:1],,8h[4:1],{4},{8}3,
3,6,5,3,4,{4}7-3[8:1],
{8}7/1,1,5,6,4,3,{4}7/2,
8z4[8:1]/1s5b[8:1],1bx/8bx,,{8}5,5,
6/B2,6,,7,B3,8,,7,
6/E3,5,7,8,1/B6,2,{4}3,
{8}3/E8,2,3,4,{4}5/E2,6pp1b[8:3],
A6/2>5[8:1],2,,{8}4,4,
3/B7,3,,1,2/B6,3,,5,
5/B1,6,6xh[2:1],7,8,1,{4}2,
{8}3,3h[2:1],E7,B8,B5,C,{4}8x-4[8:1],
8<5b[8:1],{8}8b/3x,2,2,4/5x,6,6,
8/7x,1/2x,4/3x,2,2,5/6x,7,7,
4/2x,1/8x,5/7,6,6,4/2,3,3,
8/1,5/6,{16}3x,8,2,1,4,7,2,1,3,5,1,7,
{4}3b/Cf,{8}4/6x,7,5/3x,2,6/4h[16:1],8,
3/5h[16:1],1,2/7-3[8:1],8,7/2-5[8:1],1,2/8-4[8:1],7,
1/8,2,5bx/3,1bx/7,6bx/4,2bx/8,{32}4bx,5,6,7,8,1,2,3,
4,5,6,7,8,1,2,3,{4}4bx-8b[8:1],{8}4bx,2bw6b[8:1],,2b,
{4},3-7[8:1]/7-3[8:1],3/7,{8}1-5[8:1],5-1[8:1],
1,C,8-4[8:1],7-3[8:1],8>3[8:1],7,{4}8,
{24}E3/E7,B3/B7,B4/B8,E5/E1,{12},{4}1x-6[8:1]/5x-2[8:1],1/5,{8}8-4[8:1],4-8[8:1],
8,C,2-6[8:1],1-5[8:1],2,1,{24}A2,A3,A4,A5,A6,A7,
{8}8bx-4-8b[4:1],1x,{4}A8/2x-6-2b[4:1],A2,{8}8-4[8:1],4-8[8:1],
8,C,1-5[8:1],2-6[8:1],1<7[8:1],2,{4}1,
Cf,3pp5[8:1]/7pp1[8:1],{8}3/7,A1/A5,,1/5,
4/8,3/7,2v5[8:1]/6v1[8:1],3/7,{4}2/6x,{8}7v4[8:1]/3v8[8:1],2/6,
{4}7/3x,5/6x-1[8:1],6,{8}4/2-6[8:1],4,
2/4,4,1/7-3[8:1],1,7/1,1,{4}2bw6[8:1],
,8/7x-4[8:1],7,{8}1/3-7[8:1],1,
3/1,1,4/6-2[8:1],4,6/4,4,{4}3bw7[8:1],
,5V71[8:1]*<1[8:1]/1V35[8:1]*>5[8:1],{8}1/5,A1/A5,,8,
8-6>5[8:1],8-2>3[8:1],8x-4[8:1],8x,{4}8x,2-6[8:1]/6-2[8:1],
2/6,{16}3,4,2,5,1,6,8,7,5,6,4,7,
3,8,2,1,{32}3bx,4,5,6,7,8,1,2,3,4,5,6,7,8,1,2,{4}7bx-3[8:1]/3bx-7[8:1],
3b/7b,1-6[8:1]*-4[8:1],1,{8}2v5[8:1],5,
2,7v4[4:1],,4V61[4:1],,2,,2V46[8:1],
4,2,8-4[8:1],7-3[8:1],8-2[8:1],7,{4}8,
{8}5-3[8:1],5-7[8:1],5x-2[8:1],5x-8[8:1],5x-1[8:1],5x,{4}5x,
3-7[8:1]/7-3[8:1],7/3,B1/B5/E1/E2/E5/E6,{8}7v4[8:1],4,
7,2v5[4:1],,5V38[4:1],,7,,7V53[8:1],
5,7,1-5[8:1],2-6[8:1],1-7[8:1],2,{4}1,
{8}3-8b[8:1],7-2b[8:1],3x-6b[8:1],7x-4b[8:1],3bx-8b[8:1],7bx,{4}3bx,
2>2[2:7]/6<6[2:7],2x/6x,,,,,,,,,,,,,,,,6xh[#0.9473648],
{2}B1,
{4}B3,3xh[4:3],{2}B8,
{4}B6,6xh[4:1]/5xh[8:1],{8},C,{4}3xh[4:1],
{8}4x<8[4:1],4x,{4}8x>4[4:1],4xV68[4:1],8w4[8:1],
,{8}6bx/2x,1,8,7/3b,6,5,
3/4b,4/3b,2b>5[8:1],1,8,7b>2[8:1],6,5,
{4}4b-8b[8:1],{8}4b/3,2,1,5b/6,7,8,
2b/4,4b/2,{16}1,5,2,6,3,7,4,8,5,7,3,1,
{4}4bx/Cf,{8}1/7bx,6,8/2bx,3,7/1bh[16:1],5,
2/8bh[16:1],4,3/6bx-2b[8:1],5,6/3bx-8b[8:1],4,3/5bx-1b[8:1],6,
4/5bx,3,8bx/4bx,7bx/3bx,6bx/2bx,5bx/1bx,{16}4bx/8bx,7,6,5,
4/8,3/7,2/6,1/5,{8}A8/B8/B4/A4/Cf,E2/B2/E3,{4}E7/B6/E6,Cfh[4:1],
B7/E7/B6/B2/E3/B3,{8}2v5[8:1],5V31[8:1],2,7-4[8:1],,7,
1-5[8:1],2-6[8:1],1-7[8:1],2-4[8:1],1-5[8:1],2,{4}1,
Cf,{8}7v4[8:1],4V68[8:1],7,2-5[8:1],,2,
1,1,3-7[8:1]/7-3[8:1],1/5,{4}3/7,{8}6-2[8:1]/2-6[8:1],8/4,
{4}6/2,4bxh[8:1]/8bxh[8:1],{8}6bx/2bx,6bx/2bx,,3bxh[16:1]/4bxh[16:1],
5bxh[16:1]/6bxh[16:1],7bxh[16:1]/8bxh[16:1],2bx-5b[8:1]/1bx-6b[8:1],3bx/8bx,{4}2bx/1bx,{8}7bxq3b[8:1]/8bxp4b[8:1],6bx/1bx,
{4}8bx/7bx,5h[32:1]/2bh[32:1],{8}7bh[32:1]/4h[32:1],4bh[32:1]/7h[32:1],,6bh[32:1]/5h[32:1],
4bh[32:1]/5h[32:1],4bh[32:1]/3h[32:1],{4}1bV35[0.6316##0.1579]/2V46b[0.6316##0.1579],{2}6V82b[0.4737##0.1579]/5bV71[0.4737##0.1579],
{8}C,C,5x/3x-7[8:1],5,{4}5/3,{8}6/8-3[8:1],6,
6/8,6,4x/6x-2[8:1],4,{4}4/6,{8}3/1-6[8:1],3,
{4}3/1,{8}1x/7x-3[8:1],1,{4}1/7,{8}2/4-7[8:1],2,
2/4,2,8x/2x-6[8:1],8,{4}8/2,{8}7/5-2[8:1],7,
{4}7/5,{8}1x/7-3b[8:1],1,{4}1/7,{8}2/4-7b[8:1],2,
2/4,2,8x/2-6b[8:1],8,{4}8/2,{8}7/5-2b[8:1],7,
{4}7/5,{32}B8,B1,B2,B3,B4,B5,B6,B7,E1,E2,E3,E4,E5,E6,E7,E8,1x,2x,3x,4x,5x,6x,7x,8x,
1,2,3,4,5,6,7,8,{16}1b-5b[0.2368##0.1579],{8},{16}7b-4b[0.2368##0.1579],{8},2b-6b[0.2368##0.1579],{16},8bxw4b[0.5526##0.1579],{8},{16}8bx,
8bx,8bx,8bx,{4}8b,B2/B6/E7/E2,{8}2v5[8:1],5V31[8:1],
2,7v4[8:1],,7V13[8:1],,7,,8-4[8:1],
4,8,2-6[8:1],1-5[8:1],2-4[8:1],1,{4}2,
{8}7-2[8:1],3-8[8:1],7<4[8:1],3,{4}7,3-8[8:1]/7-4[8:1],
3-6[8:1]/7-2[8:1],3/7,B7/B6/E7/B2/E3/B3,{8}7v4[8:1],4V68[8:1],
7,2v5[8:1],,2V86[8:1],,2,,1-5[8:1],
5,1,7-3[8:1],8-4[8:1],7-5[8:1],8,{4}7,
{8}2-7[8:1],6-1[8:1],2>5[8:1],6,{4}2,2>5[8:1]/6<1[8:1],
6bx/2bx,{8}1bx-5[16:3],1,2-6[8:1],2,3-7[8:1],3,
4-8[8:1],4,6-3[16:1],6,2-7[8:1],2,5-1[8:1],5,
4-8[8:1],4,4/6-1b[8:1],6,6/3-8b[8:1],3,3/7-4b[8:1],7,
7/1-5b[8:1],1,1/8-3b[8:1],8,8/2-6b[8:1],2,2/7-4b[8:1],7,
7/3,3,2/6,2/6,3/7,3/7,4/8,4/8,
1/5,1/5,3/4,6/8,2/1,3/5,6/7,2/8,
3/5,1/7,{16}7,6,5/2,3,4/8,7,6/1,2,3/7,6,5/2,3,
4/8,7,6/1,2,{32}3/8bx,7,6,5,{16}4,{32}1bx,2,3,4,{16}5,{32}8bx,7,6,5,1bx,2,3,4,5,6,7,8,
1,2,3,4,5,6,7,8,{4}1/Cf,
E
